<?xml version="1.0" standalone="no"?>
<!DOCTYPE svg PUBLIC "-//W3C//DTD SVG 1.1//EN" "http://www.w3.org/Graphics/SVG/1.1/DTD/svg11.dtd" >
<svg xmlns="http://www.w3.org/2000/svg" xmlns:xlink="http://www.w3.org/1999/xlink" version="1.1">
<metadata>
Release v1.02. (c) 2020 Braille Institute of America, Inc., a 501(c)(3) Charitable Organization. BrailleInstitute.org.
Designed by Elliott Scott, Megan Eiswerth, Linus Boman and Theodore Petrosky at Applied Design Works.

Braille Institute of America, Inc. provides Atkinson Hyperlegible for use, without derivatives or alteration, to the public free of charge for all non-commercial and commercial work. No attribution required.
</metadata>
<defs>
<font id="AtkinsonHyperlegible-Italic" horiz-adv-x="693" >
  <font-face 
    font-family="Atkinson Hyperlegible"
    font-weight="400"
    font-style="italic"
    font-stretch="normal"
    units-per-em="1000"
    panose-1="0 0 0 0 0 0 0 0 0 0"
    ascent="800"
    descent="-200"
    x-height="496"
    cap-height="668"
    bbox="-154 -252 1338 886"
    underline-thickness="57"
    underline-position="-219"
    slope="-12"
    unicode-range="U+000D-25CA"
  />
<missing-glyph horiz-adv-x="527" 
d="M50 0v700h427v-700h-427zM79 21h370l-185 308zM71 49l180 301l-180 300v-601zM457 47v605l-181 -302zM263 371l186 309h-371z" />
    <glyph glyph-name=".notdef" horiz-adv-x="527" 
d="M50 0v700h427v-700h-427zM79 21h370l-185 308zM71 49l180 301l-180 300v-601zM457 47v605l-181 -302zM263 371l186 309h-371z" />
    <glyph glyph-name=".null" horiz-adv-x="0" 
 />
    <glyph glyph-name="uni000D" unicode="&#xd;" horiz-adv-x="0" 
 />
    <glyph glyph-name="space" unicode=" " horiz-adv-x="280" 
 />
    <glyph glyph-name="exclam" unicode="!" horiz-adv-x="284" 
d="M149 195h-54l45 300l37 173h91l-36 -173zM28 42q-4 26 11.5 47.5t41.5 26.5q26 4 47.5 -11.5t26.5 -41.5q4 -26 -11.5 -47.5t-41.5 -26.5q-26 -4 -47.5 11.5t-26.5 41.5z" />
    <glyph glyph-name="quotedbl" unicode="&#x22;" horiz-adv-x="334" 
d="M250 447l-14 221h80l-14 -221h-52zM95 668h80l-14 -221h-52z" />
    <glyph glyph-name="numbersign" unicode="#" horiz-adv-x="634" 
d="M160 172h-124l11 81h124l23 162h-124l11 81h124l24 172h82l-24 -172h123l24 172h82l-24 -172h123l-11 -81h-124l-22 -162h123l-11 -81h-124l-24 -172h-82l24 172h-123l-24 -172h-82zM253 253h123l22 162h-123z" />
    <glyph glyph-name="dollar" unicode="$" horiz-adv-x="610" 
d="M38 153l91 26q22 -67 97 -93l50 233q-42 12 -69 23.5t-57.5 32t-45.5 52.5t-15 76q0 94 80 143t185 41l13 63h52l-15 -71q119 -27 160 -116l-92 -26q-24 44 -85 62l-45 -211q39 -12 60 -19.5t53.5 -23.5t49 -33t29.5 -45t13 -63q0 -69 -43.5 -119.5t-108.5 -72.5
t-136 -16l-16 -76h-52l18 84q-60 15 -105.5 52.5t-65.5 96.5zM276 75q68 -6 120.5 25.5t52.5 90.5q0 45 -31.5 69t-92.5 44zM184 512q-3 -42 26 -66.5t84 -42.5l43 205q-59 4 -104 -21t-49 -75z" />
    <glyph glyph-name="percent" unicode="%" horiz-adv-x="1000" 
d="M246 317q-76 0 -123.5 53t-39.5 129q8 75 67 128t134 53q76 0 123.5 -53t39.5 -128q-8 -76 -67 -129t-134 -53zM734 -12q-76 0 -123.5 53t-39.5 129q8 75 67 128t134 53q76 0 123.5 -53t39.5 -128q-8 -76 -67 -129t-134 -53zM319 0h-88l468 668h88zM645 170
q-5 -45 23.5 -76.5t73.5 -31.5q44 0 78.5 31.5t39.5 76.5q5 44 -23 75.5t-73 31.5q-44 0 -79.5 -31.5t-39.5 -75.5zM157 499q-5 -45 23.5 -76.5t73.5 -31.5q44 0 78.5 31.5t39.5 76.5q5 44 -23 75.5t-73 31.5q-44 0 -79.5 -31.5t-39.5 -75.5z" />
    <glyph glyph-name="ampersand" unicode="&#x26;" horiz-adv-x="691" 
d="M204 -12q-95 0 -144.5 53.5t-44.5 133.5q4 72 62.5 129t144.5 85q-51 82 -37 154q13 65 62 100.5t124 35.5q77 0 124.5 -38t40.5 -105q-7 -62 -56 -102.5t-129 -71.5l105 -140q49 60 73 138h87q-29 -98 -113 -203l116 -157h-112l-64 86q-114 -98 -239 -98zM102 185
q-7 -57 24 -88t86 -31q90 0 188 79l-137 188q-149 -48 -161 -148zM272 540q-4 -9 -2.5 -21l2.5 -20t5.5 -19.5t7 -18t8 -16t8 -13l7.5 -10.5l4 -6q133 45 141 114q4 34 -18 57.5t-70 21.5q-78 -3 -93 -69z" />
    <glyph glyph-name="quotesingle" unicode="'" horiz-adv-x="193" 
d="M109 447l-14 221h80l-14 -221h-52z" />
    <glyph glyph-name="parenleft" unicode="(" horiz-adv-x="303" 
d="M95 -162q-94 223 -49.5 432t214.5 398h79q-77 -95 -127.5 -185.5t-79.5 -194t-19.5 -217.5t59.5 -233h-77z" />
    <glyph glyph-name="parenright" unicode=")" horiz-adv-x="303" 
d="M28 -162h-81q77 94 127.5 185t80 194.5t20 217.5t-59.5 233h77q93 -222 49.5 -431.5t-213.5 -398.5z" />
    <glyph glyph-name="asterisk" unicode="*" horiz-adv-x="440" 
d="M119 442l79 71l-92 53l29 49l92 -53l22 105l56 -12l-22 -105l105 11l7 -56l-106 -12l43 -97l-52 -23l-44 97l-79 -71z" />
    <glyph glyph-name="plus" unicode="+" horiz-adv-x="619" 
d="M42 288h208v208h80v-208h208v-80h-208v-208h-80v208h-208v80z" />
    <glyph glyph-name="comma" unicode="," horiz-adv-x="209" 
d="M18 -133h-61l75 125q-22 8 -34 28t-8 44q5 26 27 41t48 11q34 -6 48 -37t-5 -61z" />
    <glyph glyph-name="hyphen" unicode="-" horiz-adv-x="369" 
d="M20 208l18 81h292l-18 -81h-292z" />
    <glyph glyph-name="period" unicode="." horiz-adv-x="208" 
d="M-1 52q0 27 19 46t45 19q27 0 46 -19t19 -46q0 -26 -19 -45t-46 -19q-26 0 -45 19t-19 45z" />
    <glyph glyph-name="slash" unicode="/" horiz-adv-x="371" 
d="M-50 0l402 668h87l-402 -668h-87z" />
    <glyph glyph-name="zero" unicode="0" horiz-adv-x="654" 
d="M293 -12q-128 0 -185 89.5t-36 256.5t99.5 256.5t206.5 89.5q129 0 186 -89.5t36 -256.5t-100 -256.5t-207 -89.5zM163 334q-8 -51 -4.5 -100t16.5 -87t45.5 -61t81.5 -23q62 0 106 35l-197 405q-36 -64 -48 -169zM369 605q-57 0 -99 -31l195 -402q32 66 44 162
q5 38 5.5 71.5t-6 71.5t-21.5 65t-45 45t-73 18z" />
    <glyph glyph-name="one" unicode="1" horiz-adv-x="403" 
d="M87 503l14 68q100 0 151.5 24.5t74.5 72.5h58l-142 -668h-85l107 503h-178z" />
    <glyph glyph-name="two" unicode="2" horiz-adv-x="565" 
d="M-18 0l16 76q213 119 323 211.5t130 177.5q16 66 -19 105.5t-91 39.5q-120 0 -167 -112l-78 24q71 158 248 158q101 0 160.5 -56t38.5 -163q-10 -53 -47 -105t-97.5 -101t-123 -90.5t-144.5 -87.5h348l-16 -77h-481z" />
    <glyph glyph-name="three" unicode="3" horiz-adv-x="580" 
d="M32 158l86 23q8 -57 44.5 -90t98.5 -33q64 0 109.5 36t45.5 93q0 30 -9 52.5t-26.5 36t-35 22t-44 12t-44 4.5t-43.5 1l16 75q47 0 78.5 3.5t65.5 13.5t52.5 34t19.5 60q2 52 -35 80.5t-93 28.5q-113 0 -149 -112l-78 25q22 72 82.5 114.5t149.5 42.5q88 0 151.5 -39
t63.5 -121q0 -65 -36 -109t-99 -64q102 -34 102 -149q0 -86 -64.5 -148t-181.5 -62q-97 0 -155.5 47t-71.5 123z" />
    <glyph glyph-name="four" unicode="4" horiz-adv-x="636" 
d="M17 165l17 79l428 424h87l-90 -424h124l-17 -79h-124l-35 -165h-87l36 165h-339zM438 552l-311 -308h245z" />
    <glyph glyph-name="five" unicode="5" horiz-adv-x="575" 
d="M238 -12q-89 4 -142.5 48.5t-70.5 117.5l83 23q30 -112 134 -117q72 -2 117 41.5t50 118.5t-28.5 114.5t-95.5 42.5q-50 3 -87.5 -18t-56.5 -54l-78 24l113 339h385l-18 -81h-314l-63 -187q54 50 135 50q89 0 150 -64t48 -173q-9 -79 -50.5 -132.5t-95.5 -74.5t-115 -18z
" />
    <glyph glyph-name="six" unicode="6" horiz-adv-x="605" 
d="M281 -12q-125 0 -178.5 86t-35.5 237q9 74 31.5 138.5t59 117t92 83t122.5 30.5q71 0 117 -29.5t64 -77.5l-88 -25q-24 62 -102 62q-75 0 -126.5 -66t-72.5 -183q57 84 172 84q93 0 148.5 -63.5t48.5 -162.5t-73.5 -165t-178.5 -66zM152 227q-8 -70 29.5 -119.5
t102.5 -49.5q66 0 110 44t49 113q5 70 -31 112.5t-102 42.5q-65 0 -108 -39t-50 -104z" />
    <glyph glyph-name="seven" unicode="7" horiz-adv-x="537" 
d="M31 0l414 587h-367l18 81h471l-17 -81l-411 -587h-108z" />
    <glyph glyph-name="eight" unicode="8" horiz-adv-x="617" 
d="M266 -12q-108 0 -172 53.5t-55 146.5q7 63 44.5 109t97.5 68q-51 52 -43 133q8 75 66.5 128.5t133.5 53.5t122.5 -53.5t39.5 -128.5q-8 -79 -71 -133q55 -22 83 -68t21 -109q-9 -93 -84 -146.5t-183 -53.5zM130 188q-6 -58 33 -91.5t111 -33.5q71 0 117 33.5t52 91.5
q6 59 -33 94t-111 35q-71 0 -117 -35t-52 -94zM212 498q-5 -44 23 -75.5t72 -31.5t79.5 31.5t39.5 75.5q4 45 -24 76t-73 31q-44 0 -78.5 -31t-38.5 -76z" />
    <glyph glyph-name="nine" unicode="9" horiz-adv-x="601" 
d="M335 211q-62 -7 -112.5 11t-80 53.5t-42.5 81t-5 97.5t36 100q35 60 98 93t130 33q59 0 105 -25q49 -27 79.5 -76t29.5 -115.5t-42 -128.5q-35 -52 -101 -136t-114 -141l-49 -58h-116zM180 440q-7 -64 31 -108t101 -44q64 0 112.5 44t60.5 114q9 56 -27 104t-111 46
q-63 -2 -111.5 -45t-55.5 -111z" />
    <glyph glyph-name="colon" unicode=":" horiz-adv-x="209" 
d="M135 375q-26 0 -45 19t-19 46q0 26 19 45t45 19q27 0 46 -19t19 -45q0 -27 -19 -46t-46 -19zM53 -12q-26 0 -45 19t-19 45q0 27 19 46t45 19q27 0 46 -19t19 -46q0 -26 -19 -45t-46 -19z" />
    <glyph glyph-name="semicolon" unicode=";" horiz-adv-x="209" 
d="M-43 -133l75 125q-22 8 -34 28t-8 44q5 26 27 41t48 11q34 -6 48 -37t-5 -61l-90 -151h-61zM136 375q-26 0 -45 19t-19 46q0 26 19 45t45 19q27 0 46 -19t19 -45q0 -27 -19 -46t-46 -19z" />
    <glyph glyph-name="less" unicode="&#x3c;" horiz-adv-x="613" 
d="M38 283l473 213v-90l-368 -158l368 -158v-90l-473 213v70z" />
    <glyph glyph-name="equal" unicode="=" horiz-adv-x="658" 
d="M63 307v79h496v-79h-496zM559 121h-496v79h496v-79z" />
    <glyph glyph-name="greater" unicode="&#x3e;" horiz-adv-x="613" 
d="M451 248l-368 158v90l473 -213v-70l-473 -213v90z" />
    <glyph glyph-name="question" unicode="?" horiz-adv-x="527" 
d="M89 524q28 77 91.5 116t151.5 39q37 0 71.5 -9t64.5 -28t45 -53.5t9 -80.5q-12 -91 -150 -157q-54 -27 -77.5 -56.5t-31.5 -70.5l-8 -34h-85l7 37q17 77 56 117.5t109 76.5q81 41 90 92q7 43 -23.5 69.5t-79.5 26.5q-126 0 -163 -109zM163 -7q-25 10 -35 34.5t0 49.5
q18 40 60 40q12 0 25 -5q25 -11 35 -35t0 -49q-18 -40 -60 -40q-12 0 -25 5z" />
    <glyph glyph-name="at" unicode="@" horiz-adv-x="787" 
d="M67 334q0 143 101.5 244.5t244.5 101.5q58 0 116 -21t107 -59.5t79.5 -99.5t30.5 -134q0 -105 -53.5 -158t-123.5 -53q-43 0 -74.5 19t-38.5 51q-52 -70 -128 -70q-57 0 -90.5 44t-17.5 120q22 106 86 153t148 47q59 0 117 -20q-36 -175 -47 -221q-6 -27 9.5 -43
t42.5 -16q29 0 56.5 19.5t39.5 54.5q27 80 -2 156t-99.5 123t-157.5 47q-117 0 -200.5 -83.5t-83.5 -201.5q0 -122 85.5 -203.5t199.5 -81.5q71 0 135 36v-69q-63 -28 -133 -28q-139 0 -244 98t-105 248zM299 312q-9 -40 6 -62t43 -22q33 0 64.5 29.5t42.5 81.5l22 103
q-26 4 -43 4q-106 0 -135 -134z" />
    <glyph glyph-name="A" unicode="A" horiz-adv-x="627" 
d="M-52 0l392 668h116l109 -668h-103l-21 146h-302l-83 -146h-108zM381 573l-197 -347h246z" />
    <glyph glyph-name="B" unicode="B" horiz-adv-x="630" 
d="M14 0l142 668h251q59 0 102.5 -18t65 -46.5t27.5 -64t-5 -70.5t-39 -66.5t-68 -50.5q75 -29 84.5 -115t-65 -161.5t-209.5 -75.5h-286zM176 308l-49 -229h181q89 0 135 63q39 52 20 104q-29 59 -115 62h-172zM235 588l-43 -206h172q85 0 123 61q31 49 7 96q-25 49 -94 49
h-165z" />
    <glyph glyph-name="C" unicode="C" horiz-adv-x="666" 
d="M316 -12q-65 0 -115.5 20.5t-79.5 55.5t-47.5 80t-19 94t5.5 98q26 152 123.5 248t238.5 96q89 0 149.5 -38t84.5 -114l-89 -30q-16 50 -56.5 76t-98.5 26q-95 0 -164.5 -71.5t-91.5 -192.5q-21 -115 27.5 -192t142.5 -77q65 0 110 25t81 79l79 -31q-95 -152 -280 -152z
" />
    <glyph glyph-name="D" unicode="D" horiz-adv-x="676" 
d="M14 0l142 668h184q350 0 291 -349q-26 -157 -141 -238t-291 -81h-185zM127 79h86q281 0 323 246q10 48 7.5 85.5t-9 65.5t-23.5 47.5t-35.5 32t-45.5 20t-52.5 10t-57.5 2.5h-85z" />
    <glyph glyph-name="E" unicode="E" horiz-adv-x="569" 
d="M14 0l142 668h455l-17 -81h-359l-43 -203h265l-18 -80h-264l-48 -223h359l-17 -81h-455z" />
    <glyph glyph-name="F" unicode="F" horiz-adv-x="550" 
d="M14 0l142 668h436l-18 -81h-339l-43 -203h339l-17 -80h-339l-65 -304h-96z" />
    <glyph glyph-name="G" unicode="G" horiz-adv-x="713" 
d="M301 -12q-132 0 -197.5 97.5t-43.5 250.5q22 148 120 246t239 98q192 0 237 -152l-89 -30q-12 43 -51.5 72.5t-103.5 29.5q-94 0 -165 -71t-91 -193q-20 -120 27.5 -193t134.5 -76q182 -7 225 176l5 21h-196l17 80h287l-74 -344h-56l-6 82q-84 -94 -219 -94z" />
    <glyph glyph-name="H" unicode="H" horiz-adv-x="694" 
d="M14 0l142 668h96l-60 -284h350l60 284h96l-142 -668h-96l64 304h-349l-65 -304h-96z" />
    <glyph glyph-name="I" unicode="I" horiz-adv-x="414" 
d="M4 0l16 75h93l110 518h-93l16 75h281l-15 -75h-94l-109 -518h92l-16 -75h-281z" />
    <glyph glyph-name="J" unicode="J" horiz-adv-x="509" 
d="M163 -12q-80 0 -130.5 51.5t-39.5 150.5l90 24q-27 -149 92 -149q54 0 90.5 32t54.5 116l97 455h96l-97 -456q-13 -62 -37 -106.5t-47.5 -66.5t-58 -34.5t-56.5 -14.5t-54 -2z" />
    <glyph glyph-name="K" unicode="K" horiz-adv-x="623" 
d="M14 0l142 668h96l-69 -323l357 323h130l-319 -283l200 -385h-105l-165 324l-126 -114l-45 -210h-96z" />
    <glyph glyph-name="L" unicode="L" horiz-adv-x="541" 
d="M14 0l142 668h96l-125 -587h359l-17 -81h-455z" />
    <glyph glyph-name="M" unicode="M" horiz-adv-x="824" 
d="M14 0l142 668h156l62 -542l292 542h162l-142 -668h-96l119 559l-309 -559h-95l-72 575l-123 -575h-96z" />
    <glyph glyph-name="N" unicode="N" 
d="M14 0l142 668h137l186 -574l122 574h96l-142 -668h-137l-185 576l-123 -576h-96z" />
    <glyph glyph-name="O" unicode="O" horiz-adv-x="728" 
d="M312 -12q-136 0 -205 99t-47 248q23 155 121.5 250t251.5 95q137 0 207 -100.5t46 -244.5q-11 -68 -38.5 -128t-72 -110t-112.5 -79.5t-151 -29.5zM156 335q-21 -125 29 -196.5t140 -71.5q102 0 173 71.5t92 196.5q21 122 -30 193.5t-140 71.5q-108 0 -176 -73.5
t-88 -191.5z" />
    <glyph glyph-name="P" unicode="P" horiz-adv-x="602" 
d="M14 0l142 668h186q42 0 75.5 -3.5t71.5 -15.5t62.5 -32t39 -57t9.5 -87q-10 -106 -84 -157t-229 -51h-121l-56 -265h-96zM235 588l-51 -242h127q84 0 132 25.5t57 85.5q11 75 -27 103t-122 28h-116z" />
    <glyph glyph-name="Q" unicode="Q" horiz-adv-x="749" 
d="M316 5q-136 0 -205 99t-47 247q23 155 121.5 250t251.5 95q137 0 206.5 -100t46.5 -245q-21 -135 -101 -228l99 -116l-70 -62l-100 117q-84 -57 -202 -57zM160 351q-21 -124 29.5 -195.5t139.5 -71.5q76 0 136 40l-136 160l71 60l132 -154q47 68 62 161q21 123 -30 194.5
t-140 71.5q-108 0 -176 -74t-88 -192z" />
    <glyph glyph-name="R" unicode="R" horiz-adv-x="610" 
d="M14 0l142 668h204q127 0 189.5 -44.5t49.5 -148.5q-8 -72 -61 -124.5t-167 -62.5l147 -288h-105l-143 281h-100l-60 -281h-96zM235 588l-48 -228h124q87 0 135 23.5t56 89.5q8 65 -30 90t-120 25h-117z" />
    <glyph glyph-name="S" unicode="S" horiz-adv-x="609" 
d="M36 147l91 25q18 -51 64 -78t102 -27q62 0 107.5 31.5t45.5 85.5q0 39 -26.5 64.5t-66.5 37.5t-86.5 27.5t-86.5 33t-66.5 55.5t-26.5 93q0 87 70 136t167 49q77 0 143 -32.5t94 -92.5l-92 -26q-17 34 -59 53t-90 19q-55 0 -94.5 -25t-43.5 -71q-3 -45 33 -72t90 -42.5
t108 -33.5t92.5 -58t38.5 -102q0 -96 -77.5 -152.5t-181.5 -56.5q-85 0 -154 40.5t-95 118.5z" />
    <glyph glyph-name="T" unicode="T" horiz-adv-x="558" 
d="M73 587l17 81h538l-17 -81h-222l-123 -587h-97l124 587h-220z" />
    <glyph glyph-name="U" unicode="U" 
d="M286 -12q-140 0 -192.5 70t-19.5 222l83 388h96l-84 -396q-22 -108 5 -155.5t117 -47.5q95 0 147.5 44.5t77.5 158.5l85 396h96l-83 -388q-16 -77 -44 -133t-58.5 -86t-72.5 -47t-75.5 -21.5t-77.5 -4.5z" />
    <glyph glyph-name="V" unicode="V" horiz-adv-x="592" 
d="M90 668h99l62 -558l300 558h111l-372 -668h-112z" />
    <glyph glyph-name="W" unicode="W" horiz-adv-x="844" 
d="M116 0l-26 668h100l12 -540l234 540h113l5 -551l250 551h110l-310 -668h-121l-11 551l-245 -551h-111z" />
    <glyph glyph-name="X" unicode="X" horiz-adv-x="624" 
d="M-52 0l326 351l-158 317h102l121 -245l227 245h125l-308 -332l169 -336h-103l-132 264l-244 -264h-125z" />
    <glyph glyph-name="Y" unicode="Y" horiz-adv-x="598" 
d="M90 668h96l104 -337l264 337h114l-343 -428l-51 -240h-97l52 240z" />
    <glyph glyph-name="Z" unicode="Z" horiz-adv-x="613" 
d="M-18 0l17 81l501 506h-372l17 81h495l-17 -81l-500 -506h401l-18 -81h-524z" />
    <glyph glyph-name="bracketleft" unicode="[" horiz-adv-x="317" 
d="M-20 -161l176 829h207l-15 -75h-124l-145 -680h125l-16 -74h-208z" />
    <glyph glyph-name="backslash" unicode="\" horiz-adv-x="519" 
d="M355 0l-260 668h87l260 -668h-87z" />
    <glyph glyph-name="bracketright" unicode="]" horiz-adv-x="317" 
d="M-63 -161l16 74h125l145 680h-125l15 75h207l-175 -829h-208z" />
    <glyph glyph-name="asciicircum" unicode="^" horiz-adv-x="552" 
d="M47 311l185 357h76l185 -357h-89l-134 258l-134 -258h-89z" />
    <glyph glyph-name="underscore" unicode="_" horiz-adv-x="413" 
d="M-32 -79v79h376v-79h-376z" />
    <glyph glyph-name="grave" unicode="`" horiz-adv-x="272" 
d="M141 647q-9 13 -6.5 29t14.5 24q10 7 23 7q19 0 30 -15l76 -121h-68q-53 54 -69 76z" />
    <glyph glyph-name="a" unicode="a" horiz-adv-x="520" 
d="M153 -12q-65 0 -107 35.5t-42 93.5q0 140 242 177q22 3 123 14q31 128 -85 128q-92 0 -127 -77l-75 23q26 58 76.5 90t121.5 32q105 0 150 -50.5t24 -151.5l-24 -114q-21 -104 -23 -188h-79l-4 63q-66 -75 -171 -75zM99 139q-6 -40 17.5 -61t63.5 -21q68 0 116.5 45.5
t61.5 121.5l3 17q-136 -13 -195 -32t-67 -70z" />
    <glyph glyph-name="b" unicode="b" horiz-adv-x="557" 
d="M8 0l142 668h86l-51 -238q57 74 140 74q97 0 141 -61t44 -150q0 -118 -65.5 -211.5t-177.5 -93.5q-104 0 -154 94l-41 -82h-64zM139 211q0 -63 31 -107t88 -44q53 0 91.5 39t54.5 89.5t16 102.5q0 64 -28 102.5t-84 38.5q-77 0 -123 -70t-46 -151z" />
    <glyph glyph-name="c" unicode="c" horiz-adv-x="493" 
d="M220 -12q-106 0 -157.5 71t-33.5 189q18 114 89 185t178 71q134 0 185 -111l-83 -29q-10 30 -39 48t-67 18q-74 0 -116.5 -52.5t-55.5 -128.5q-13 -82 14 -134.5t105 -52.5q75 0 124 65l71 -28q-33 -54 -89.5 -82.5t-124.5 -28.5z" />
    <glyph glyph-name="d" unicode="d" horiz-adv-x="554" 
d="M205 -12q-94 0 -142 73.5t-33 185.5q16 119 82 188t159 69q57 0 97.5 -29.5t55.5 -76.5l57 270h86q-77 -360 -102 -480q-22 -107 -23 -188h-81l-5 61q-58 -73 -151 -73zM121 247q-14 -89 18 -138t87 -49q74 0 118.5 58t51.5 129q8 85 -22 135t-94 50q-65 0 -105.5 -52
t-53.5 -133z" />
    <glyph glyph-name="e" unicode="e" horiz-adv-x="541" 
d="M237 -12q-110 0 -166.5 71t-40.5 189q17 121 92 188.5t186 67.5q116 0 167 -82t24 -197h-384q-9 -86 30.5 -124.5t101.5 -38.5q77 0 123 49l78 -24q-77 -99 -211 -99zM296 432q-58 0 -106.5 -37.5t-62.5 -101.5h293q6 55 -25 97t-99 42z" />
    <glyph glyph-name="f" unicode="f" horiz-adv-x="320" 
d="M37 0l91 428h-84l15 68h83l12 53q7 30 13 51.5t15.5 39t16 28t22.5 18.5t25.5 11.5t34.5 6t41 2.5h52l-15 -71h-24q-42 0 -62 -12.5t-30 -59.5l-15 -67h102l-15 -68h-101l-91 -428h-86z" />
    <glyph glyph-name="g" unicode="g" horiz-adv-x="554" 
d="M179 -190q-64 0 -115 30t-69 82l90 25q6 -28 34.5 -47t73.5 -17q69 3 100.5 38.5t47.5 101.5l13 57q-49 -64 -136 -64q-82 0 -139.5 64t-45.5 178q13 124 80 186t152 62q53 0 97 -24t63 -64l40 78h62q-71 -337 -95 -449q-18 -82 -32 -114q-58 -123 -221 -123zM122 256
q-10 -75 24 -120t96 -47q59 -2 99.5 44.5t53.5 122.5q14 82 -22.5 129t-97.5 47q-62 0 -102.5 -46.5t-50.5 -129.5z" />
    <glyph glyph-name="h" unicode="h" horiz-adv-x="549" 
d="M8 0l142 668h86l-51 -241q59 77 171 77q81 0 114.5 -54t10.5 -162l-62 -288h-85l59 280q17 85 0.5 117.5t-74.5 32.5q-60 0 -106 -41t-65 -132l-54 -257h-86z" />
    <glyph glyph-name="i" unicode="i" horiz-adv-x="270" 
d="M132 0h-86l91 428h-80l14 68h166zM229 591q-25 0 -43.5 18.5t-18.5 43.5q0 26 18 44.5t44 18.5t44.5 -18.5t18.5 -44.5t-18.5 -44t-44.5 -18z" />
    <glyph glyph-name="j" unicode="j" horiz-adv-x="258" 
d="M-154 -159l16 73q99 -2 126.5 14.5t41.5 84.5l103 483h86l-104 -488q-6 -27 -10.5 -45t-11 -36.5t-14.5 -29.5t-18 -22.5t-24.5 -17t-32 -10.5t-41.5 -6.5t-52 -1.5t-65 2zM211 591q-26 0 -44.5 18.5t-18.5 44.5t18.5 44.5t44.5 18.5t44.5 -18.5t18.5 -44.5t-18.5 -44.5
t-44.5 -18.5z" />
    <glyph glyph-name="k" unicode="k" horiz-adv-x="488" 
d="M8 0l142 668h86l-82 -383l235 211h112l-234 -207l149 -289h-94l-119 232l-74 -66l-35 -166h-86z" />
    <glyph glyph-name="l" unicode="l" horiz-adv-x="260" 
d="M127 0q-73 0 -89.5 28t-2.5 97l115 543h86l-112 -528q-9 -34 -2.5 -49.5t40.5 -15.5h37l-16 -75h-56z" />
    <glyph glyph-name="m" unicode="m" horiz-adv-x="846" 
d="M94 0h-86l105 496h64l6 -69q64 77 158 77q103 0 134 -88q66 88 176 88q11 0 19.5 -0.5t23.5 -3t27 -8.5t25.5 -15t22 -25t14.5 -36t5 -50t-9 -66l-63 -300h-86l61 289q18 68 4 105t-70 37q-62 0 -104 -42t-59 -119l-57 -270h-86l61 289q17 70 2.5 106t-69.5 36
q-58 0 -101.5 -40.5t-60.5 -120.5z" />
    <glyph glyph-name="n" unicode="n" horiz-adv-x="550" 
d="M94 0h-86l105 496h64l6 -69q59 77 173 77q81 0 114.5 -54.5t10.5 -162.5l-62 -287h-85l59 279q17 85 0.5 118t-74.5 33q-60 0 -105.5 -41t-65.5 -132z" />
    <glyph glyph-name="o" unicode="o" horiz-adv-x="547" 
d="M230 -12q-110 0 -163 72t-37 187q9 66 36.5 117t66.5 81t82 44.5t88 14.5q96 0 156 -69t38 -198q-7 -39 -24.5 -79t-48 -80t-81.5 -65t-113 -25zM119 247q-15 -83 16.5 -134t101.5 -51q67 0 112 50t59 135q29 183 -118 183q-139 0 -171 -183z" />
    <glyph glyph-name="p" unicode="p" horiz-adv-x="556" 
d="M60 -162h-86l140 658h63l5 -66q51 74 149 74q92 0 138 -66t40 -166q-7 -114 -69.5 -199t-170.5 -85q-118 0 -155 105zM142 246q-12 -77 21 -132t97 -55q63 0 102.5 52.5t52.5 131.5q16 86 -14 137.5t-94 51.5q-62 0 -108 -52t-57 -134z" />
    <glyph glyph-name="q" unicode="q" horiz-adv-x="554" 
d="M206 -12q-92 0 -141 70t-35 188q13 108 76.5 183.5t163.5 75.5q111 0 157 -87l40 78h62q-101 -477 -109 -516q-16 -72 48 -72q31 0 82 16l-17 -78q-28 -20 -87 -20t-94.5 33t-19.5 110l19 90q-18 -31 -57 -51t-88 -20zM121 246q-12 -86 16 -136t94 -50q64 0 109.5 57.5
t52.5 129.5q9 86 -23.5 136t-94.5 50q-65 0 -104.5 -58t-49.5 -129z" />
    <glyph glyph-name="r" unicode="r" horiz-adv-x="353" 
d="M94 0h-86l105 496h63l8 -93q35 50 79.5 75.5t119.5 25.5l-19 -89q-97 4 -151 -51t-76 -159z" />
    <glyph glyph-name="s" unicode="s" horiz-adv-x="479" 
d="M213 -12q-155 0 -203 125l86 29q8 -42 42 -64t78 -22t76.5 22t32.5 59q0 30 -28.5 48.5t-69 29t-81 24t-69 45t-28.5 81.5q0 66 56.5 102.5t134.5 36.5q65 0 119 -26.5t72 -75.5l-80 -28q-9 29 -43 45t-75 16t-70 -17t-29 -48q0 -30 28.5 -48t70 -28.5t82.5 -24.5
t69.5 -45.5t28.5 -80.5q0 -74 -56.5 -114.5t-143.5 -40.5z" />
    <glyph glyph-name="t" unicode="t" horiz-adv-x="324" 
d="M49 428l14 68h83l27 124h86l-27 -124h95l-14 -68h-95l-62 -288q-10 -35 -3 -50t41 -15h44l-16 -75h-62q-74 0 -91 28t-2 97l65 303h-83z" />
    <glyph glyph-name="u" unicode="u" horiz-adv-x="540" 
d="M173 -11q-89 0 -116.5 60t-7.5 154l62 293h86l-62 -291q-7 -40 -9 -71.5t17 -51.5t60 -20q131 0 169 174l56 260h85l-105 -496h-65l-6 70q-33 -43 -70.5 -62t-93.5 -19z" />
    <glyph glyph-name="v" unicode="v" horiz-adv-x="444" 
d="M43 496h87l47 -386l212 386h98l-283 -496h-89z" />
    <glyph glyph-name="w" unicode="w" horiz-adv-x="658" 
d="M80 0l-37 496h87l17 -358l172 358h90l20 -366l176 366h96l-249 -496h-82l-23 400l-193 -400h-74z" />
    <glyph glyph-name="x" unicode="x" horiz-adv-x="463" 
d="M-62 0l242 262l-118 234h90l86 -171l159 171h109l-230 -248l124 -248h-90l-92 185l-171 -185h-109z" />
    <glyph glyph-name="y" unicode="y" horiz-adv-x="435" 
d="M-62 -161l16 75h34q60 0 80 14.5t48 71.5l-73 496h89l40 -386l206 386h100l-287 -517q-52 -94 -85 -117t-125 -23h-43z" />
    <glyph glyph-name="z" unicode="z" horiz-adv-x="467" 
d="M-22 0l15 73l362 351h-272l16 73h377l-16 -73l-359 -351h289l-15 -73h-397z" />
    <glyph glyph-name="braceleft" unicode="{" horiz-adv-x="322" 
d="M147 -162q-79 0 -100.5 31t-5.5 106l32 150q13 43 3 69t-53 26l14 67q43 0 62 23t29 71l31 150q18 84 48 110t115 26h46l-15 -71h-41q-32 0 -44.5 -12.5t-20.5 -51.5l-33 -152q-13 -60 -39 -88t-67 -39q37 -11 51 -38.5t1 -87.5l-32 -153q-9 -39 -2 -52t40 -13h41
l-15 -71h-45z" />
    <glyph glyph-name="bar" unicode="|" horiz-adv-x="289" 
d="M96 -161v829h81v-829h-81z" />
    <glyph glyph-name="braceright" unicode="}" horiz-adv-x="322" 
d="M-62 -162l15 71h42q32 0 44.5 12.5t20.5 52.5l32 152q13 60 39 88t68 39q-38 11 -52 39t-1 87l33 153q9 38 1.5 51t-39.5 13h-42l15 71h46q78 0 99 -31t6 -105l-31 -150q-13 -43 -3.5 -68.5t52.5 -25.5l-15 -67q-42 0 -60.5 -23.5t-28.5 -72.5l-32 -149q-18 -85 -48 -111
t-116 -26h-45z" />
    <glyph glyph-name="asciitilde" unicode="~" horiz-adv-x="539" 
d="M100 199l-75 22q11 47 47.5 74.5t89.5 27.5q45 0 111.5 -27.5t89.5 -27.5q24 0 41 13t22 38l74 -22q-11 -47 -47.5 -74.5t-88.5 -27.5q-38 0 -105 27t-95 27q-55 0 -64 -50z" />
    <glyph glyph-name="uni00A0" unicode="&#xa0;" horiz-adv-x="280" 
 />
    <glyph glyph-name="exclamdown" unicode="&#xa1;" horiz-adv-x="284" 
d="M0 -161l37 173l82 299h55l-46 -299l-37 -173h-91zM112 455q0 26 19 45t46 19q26 0 45 -19t19 -45q0 -27 -19 -46t-45 -19q-27 0 -46 19t-19 46z" />
    <glyph glyph-name="cent" unicode="&#xa2;" horiz-adv-x="492" 
d="M174 -8q-83 15 -122 83t-23 172q17 110 84.5 181t169.5 75l14 68h50l-15 -70q104 -15 148 -109l-83 -28q-17 52 -79 63l-78 -366q74 1 122 66l71 -29q-65 -108 -209 -110l-16 -75h-51zM120 248q-23 -149 70 -180l77 360q-63 -10 -99.5 -60.5t-47.5 -119.5z" />
    <glyph glyph-name="sterling" unicode="&#xa3;" horiz-adv-x="586" 
d="M22 55q15 6 32.5 15t41.5 26t42 37.5t34.5 49t18.5 61t-6 73.5h-110l11 51h86q-24 82 -18 143q6 58 42.5 97.5t84.5 55t105 15.5q81 0 135 -33.5t70 -96.5l-83 -23q-17 47 -45 64.5t-81 17.5q-51 0 -90 -23.5t-47 -77.5q-7 -48 20 -139h203l-11 -51h-180q17 -75 -20 -133
t-107 -94q32 12 62 12q28 0 76 -18t84 -18q52 0 115 25l10 -73q-73 -30 -131 -30q-38 0 -95 18.5t-94 18.5q-61 0 -142 -37z" />
    <glyph glyph-name="currency" unicode="&#xa4;" horiz-adv-x="666" 
d="M168 456l-66 66l36 36l66 -66q59 47 135 47q78 0 135 -47l66 66l36 -36l-66 -66q47 -57 47 -135q0 -77 -47 -136l66 -66l-36 -35l-66 65q-58 -46 -135 -46q-76 0 -135 46l-66 -65l-36 35l66 66q-47 61 -47 136q0 76 47 135zM339 463q-59 0 -100.5 -41.5t-41.5 -100.5
t41.5 -101t100.5 -42t100.5 42t41.5 101t-41.5 100.5t-100.5 41.5z" />
    <glyph glyph-name="yen" unicode="&#xa5;" horiz-adv-x="598" 
d="M47 86l11 51h149l18 86h-149l11 51h131l-128 394h96l105 -339l263 339h114l-316 -394h127l-11 -51h-146l-18 -86h146l-11 -51h-146l-18 -86h-97l18 86h-149z" />
    <glyph glyph-name="brokenbar" unicode="&#xa6;" horiz-adv-x="289" 
d="M96 358v310h81v-310h-81zM177 -161h-81v310h81v-310z" />
    <glyph glyph-name="section" unicode="&#xa7;" horiz-adv-x="526" 
d="M-43 -55l86 23q4 -35 31.5 -52.5t65.5 -17.5q37 0 68.5 16.5t39.5 45.5q8 26 -4.5 51.5t-27.5 39t-54 43.5q-7 5 -10 8q-34 26 -45.5 36t-32.5 31.5t-28 41.5t-7 45q0 70 49 116.5t125 62.5q-28 28 -33 69.5t12.5 80.5t63.5 67t110 28q60 0 108.5 -24t62.5 -72l-83 -23
q-4 24 -29 37.5t-58 13.5q-36 0 -65 -15.5t-35 -42.5q-3 -16 -0.5 -29t14.5 -26.5t22.5 -22.5t32.5 -26t35 -28q8 -7 33.5 -26.5t34 -28t23.5 -25.5t20 -33.5t5 -36.5q0 -134 -174 -190q25 -31 26 -75t-19.5 -84t-69.5 -68.5t-115 -28.5q-70 0 -117.5 32t-60.5 87zM260 391
q-55 -12 -93 -42t-41.5 -67t40.5 -74l100 -79q104 32 126 85t-46 109z" />
    <glyph glyph-name="dieresis" unicode="&#xa8;" horiz-adv-x="427" 
d="M129 644q0 22 16 37.5t38 15.5t38 -15.5t16 -37.5t-15.5 -38t-38.5 -16t-38.5 16t-15.5 38zM341 644q0 22 15.5 37.5t37.5 15.5t38 -15.5t16 -37.5t-16 -38t-38 -16t-37.5 16t-15.5 38z" />
    <glyph glyph-name="copyright" unicode="&#xa9;" horiz-adv-x="814" 
d="M70 334q0 143 101.5 244.5t244.5 101.5t244.5 -101.5t101.5 -244.5t-101.5 -244.5t-244.5 -101.5t-244.5 101.5t-101.5 244.5zM132 334q0 -118 83 -201t201 -83t201 83t83 201t-83 201t-201 83t-201 -83t-83 -201zM418 150q-83 0 -128.5 51t-45.5 141q0 88 47.5 138.5
t128.5 50.5q102 0 145 -82l-67 -25q-26 49 -80 49q-45 0 -71.5 -33.5t-26.5 -97.5q0 -65 26.5 -99t71.5 -34q58 0 83 45l66 -24q-46 -80 -149 -80z" />
    <glyph glyph-name="ordfeminine" unicode="&#xaa;" horiz-adv-x="363" 
d="M159 396q-40 0 -64 20.5t-23 53.5q1 28 16.5 47.5t47 31t61 17.5t75.5 11q6 30 -3 48t-48 18q-38 0 -56 -37l-57 18q33 67 123 67q62 0 91 -30.5t16 -88.5q-24 -103 -24 -169h-59l-3 38q-29 -45 -93 -45zM145 480q-2 -15 7.5 -24t26.5 -9q38 0 55.5 18.5t24.5 52.5l3 11
q-67 -7 -91 -17.5t-26 -31.5z" />
    <glyph glyph-name="guillemotleft" unicode="&#xab;" horiz-adv-x="563" 
d="M148 40l-103 210l172 211h104l-181 -221l97 -200h-89zM253 250l172 211h104l-181 -221l97 -200h-89z" />
    <glyph glyph-name="logicalnot" unicode="&#xac;" horiz-adv-x="667" 
d="M75 317v79h496v-306h-81v227h-415z" />
    <glyph glyph-name="registered" unicode="&#xae;" horiz-adv-x="814" 
d="M416 -12q-143 0 -244.5 101t-101.5 244q0 144 101.5 245.5t244.5 101.5t244.5 -101.5t101.5 -245.5q0 -143 -101.5 -244t-244.5 -101zM132 333q0 -117 83 -200.5t201 -83.5t201 83.5t83 200.5q0 118 -83 202t-201 84t-201 -84t-83 -202zM357 162h-76v368h112
q90 0 132 -24t42 -92q0 -79 -88 -103l108 -149h-86l-102 139h-42v-139zM405 469h-48v-110h53q81 0 81 54q0 32 -22 44t-64 12z" />
    <glyph glyph-name="macron" unicode="&#xaf;" horiz-adv-x="382" 
d="M119 601l14 67h276l-14 -67h-276z" />
    <glyph glyph-name="degree" unicode="&#xb0;" horiz-adv-x="358" 
d="M87 544q0 56 40 96t96 40t96 -40t40 -96t-40 -96t-96 -40t-96 40t-40 96zM150 544q0 -30 21.5 -51.5t51.5 -21.5q31 0 52 21.5t21 51.5q0 31 -21 52t-52 21q-30 0 -51.5 -21t-21.5 -52z" />
    <glyph glyph-name="plusminus" unicode="&#xb1;" horiz-adv-x="653" 
d="M65 349h197v147h79v-147h197v-79h-197v-146h-79v146h-197v79zM538 0h-473v79h473v-79z" />
    <glyph glyph-name="twosuperior" unicode="&#xb2;" horiz-adv-x="384" 
d="M59 403l12 54q132 73 184.5 122.5t56.5 98.5q2 26 -13.5 42t-41.5 16q-57 0 -78 -60l-60 19q37 91 139 91q56 0 91.5 -26.5t32.5 -77.5q-3 -57 -58.5 -114t-155.5 -107h179l-12 -58h-276z" />
    <glyph glyph-name="threesuperior" unicode="&#xb3;" horiz-adv-x="394" 
d="M87 486l64 17q16 -56 72 -56q32 0 53 16.5t22 45.5q1 22 -8 36.5t-27.5 19.5t-30.5 6t-32 1h-6l11 54q112 0 112 56q0 54 -59 54q-55 0 -80 -53l-58 18q41 85 141 85q53 0 88.5 -23t35.5 -74q0 -61 -68 -87q56 -26 49 -97q-6 -53 -47 -81t-102 -28q-47 0 -81.5 24
t-48.5 66z" />
    <glyph glyph-name="acute" unicode="&#xb4;" horiz-adv-x="271" 
d="M187 572h-74q101 109 121 126q10 9 25 9q17 0 29 -12q10 -12 9 -28t-12 -26z" />
    <glyph glyph-name="paragraph" unicode="&#xb6;" horiz-adv-x="521" 
d="M188 294q-62 14 -93.5 65.5t-16.5 118.5q17 79 84 134.5t146 55.5h260l-15 -68h-41l-161 -762h-83l161 762h-93l-162 -762h-83z" />
    <glyph glyph-name="periodcentered" unicode="&#xb7;" horiz-adv-x="235" 
d="M53 248q0 26 19 45t45 19q27 0 46 -19t19 -45q0 -27 -19 -46t-46 -19q-26 0 -45 19t-19 46z" />
    <glyph glyph-name="cedilla" unicode="&#xb8;" horiz-adv-x="294" 
d="M-24 -163l23 37q31 -14 57 -14q42 0 55 26q10 21 -13 29q-8 3 -19 3q-14 0 -30 -4q-15 -4 -21.5 7t2.5 22l68 82l30 -21l-41 -49q66 11 85 -29q16 -34 -14 -69q-33 -37 -95 -37q-40 0 -87 17z" />
    <glyph glyph-name="onesuperior" unicode="&#xb9;" horiz-adv-x="257" 
d="M116 682l10 48q42 0 66.5 11t38.5 38h57l-80 -376h-69l60 279h-83z" />
    <glyph glyph-name="ordmasculine" unicode="&#xba;" horiz-adv-x="383" 
d="M210 399q-58 0 -94 38t-28 109t51.5 108.5t101.5 37.5t93.5 -37.5t28.5 -108.5t-51 -109t-102 -38zM157 546q-4 -44 12 -69t47 -25t52.5 25t25.5 69q4 43 -12 68t-47 25q-30 0 -52 -25t-26 -68z" />
    <glyph glyph-name="guillemotright" unicode="&#xbb;" horiz-adv-x="555" 
d="M9 40l181 221l-97 200h89l103 -210l-172 -211h-104zM217 40l181 221l-97 200h89l103 -210l-172 -211h-104z" />
    <glyph glyph-name="onequarter" unicode="&#xbc;" horiz-adv-x="824" 
d="M399 86l12 54l236 235h77l-50 -232h65l-12 -57h-65l-18 -86h-70l18 86h-193zM100 0l468 668h88l-468 -668h-88zM112 571l10 47q42 0 66.5 11t38.5 38h57l-80 -375h-68l59 279h-83zM636 289l-144 -146h112z" />
    <glyph glyph-name="onehalf" unicode="&#xbd;" horiz-adv-x="802" 
d="M181 0h-88l468 668h88zM687 0h-276l11 54q132 73 185 122.5t57 97.5q2 26 -14 42.5t-42 16.5q-56 0 -77 -60l-60 19q37 90 139 90q56 0 92 -26t33 -77q-3 -57 -59 -114t-156 -107h179zM194 571h-82l10 47q42 0 66.5 11t38.5 38h57l-80 -375h-69z" />
    <glyph glyph-name="threequarters" unicode="&#xbe;" horiz-adv-x="906" 
d="M482 86l11 54l237 235h76l-50 -232h65l-12 -57h-64l-19 -86h-70l19 86h-193zM193 0l468 668h88l-468 -668h-88zM84 379l64 18q15 -55 72 -55q32 0 53 15.5t22 44.5q0 10 -1.5 18.5t-4.5 14.5t-9 11t-10.5 8t-13.5 5.5t-13.5 3.5t-14.5 1.5t-13 0.5h-13h-11l11 55
q112 0 112 56q0 53 -59 53q-55 0 -80 -53l-58 18q41 85 141 85q53 0 88.5 -23t35.5 -74q0 -60 -68 -86q56 -26 49 -97q-6 -53 -47 -80.5t-102 -27.5q-47 0 -81.5 23.5t-48.5 64.5zM718 289l-144 -146h113z" />
    <glyph glyph-name="questiondown" unicode="&#xbf;" horiz-adv-x="527" 
d="M179 -175q-38 0 -72.5 9t-64.5 28t-45 54t-9 81q7 52 47 89t104 68q54 26 77.5 56t31.5 72l7 34h85l-8 -37q-17 -78 -55.5 -118.5t-107.5 -76.5q-82 -42 -91 -92q-7 -43 24 -70t80 -27q125 0 162 110l77 -24q-28 -77 -91.5 -116.5t-150.5 -39.5zM322 388q-27 0 -45 18.5
t-18 45.5t18 46t45 19t46 -19t19 -46q0 -26 -19 -45t-46 -19z" />
    <glyph glyph-name="Agrave" unicode="&#xc0;" horiz-adv-x="627" 
d="M-52 0l392 668h116l109 -668h-103l-21 146h-302l-83 -146h-108zM184 226h246l-49 347zM296 828q0 12 9 24t27 12q21 0 33 -17l84 -103h-73q-51 37 -65.5 51.5t-14.5 32.5z" />
    <glyph glyph-name="Aacute" unicode="&#xc1;" horiz-adv-x="627" 
d="M-52 0l392 668h116l109 -668h-103l-21 146h-302l-83 -146h-108zM184 226h246l-49 347zM373 744q2 2 33.5 28t63 51.5t39.5 31.5q13 9 26 9q15 0 25.5 -10.5t10.5 -25.5q0 -21 -19 -34q-6 -4 -98 -50h-81z" />
    <glyph glyph-name="Acircumflex" unicode="&#xc2;" horiz-adv-x="627" 
d="M56 0h-108l392 668h116l109 -668h-103l-21 146h-302zM184 226h246l-49 347zM344 747h-96l133 101q25 19 54 19t45 -19l91 -101h-92l-55 61z" />
    <glyph glyph-name="Atilde" unicode="&#xc3;" horiz-adv-x="627" 
d="M-52 0l392 668h116l109 -668h-103l-21 146h-302l-83 -146h-108zM184 226h246l-49 347zM300 753h-65q39 103 128 103q36 0 73.5 -21t54.5 -21q5 0 9 1t7.5 2t7.5 3t6 3.5t6 5t5 4.5l5 5l5 5q13 13 27 13q18 0 26.5 -16t-1.5 -32q-36 -57 -103 -57q-30 0 -67 21t-62 21
q-44 0 -62 -40z" />
    <glyph glyph-name="Adieresis" unicode="&#xc4;" horiz-adv-x="627" 
d="M-52 0l392 668h116l109 -668h-103l-21 146h-302l-83 -146h-108zM184 226h246l-49 347zM256 796q0 22 16 37.5t38 15.5t38 -15.5t16 -37.5t-16 -38t-38 -16t-38 16t-16 38zM468 796q0 22 15.5 37.5t37.5 15.5t38 -15.5t16 -37.5t-15.5 -38t-38.5 -16q-22 0 -37.5 16
t-15.5 38z" />
    <glyph glyph-name="Aring" unicode="&#xc5;" horiz-adv-x="627" 
d="M56 0h-108l382 651q-33 33 -33 78t32.5 77t78.5 32q45 0 76 -32t31 -77q0 -64 -54 -95l104 -634h-103l-21 146h-302zM381 573l-197 -347h246zM354 729q0 -21 15 -36t37 -15t37 15t15 36t-15 36t-37 15t-37 -15t-15 -36z" />
    <glyph glyph-name="AE" unicode="&#xc6;" horiz-adv-x="991" 
d="M-52 0l629 667h455l-17 -81h-359l-43 -203h266l-17 -80h-266l-47 -222h359l-17 -81h-456l31 145h-272l-134 -145h-112zM548 529l-281 -303h216z" />
    <glyph glyph-name="Ccedilla" unicode="&#xc7;" horiz-adv-x="666" 
d="M262 -8q-52 8 -92.5 32.5t-63.5 58.5t-37.5 76.5t-14.5 87t6 89.5q26 152 123.5 248t238.5 96q89 0 149.5 -38t84.5 -114l-89 -30q-16 50 -56.5 76t-98.5 26q-95 0 -164.5 -71.5t-91.5 -192.5q-21 -115 27.5 -192t142.5 -77q65 0 110 25t81 79l79 -31q-95 -152 -290 -152
l-28 -33q66 11 85 -29q16 -34 -14 -69q-33 -37 -95 -37q-40 0 -87 17l23 37q31 -14 57 -14q42 0 55 26q10 21 -13 29q-8 3 -19 3q-14 0 -30 -4q-15 -4 -21.5 7t2.5 22z" />
    <glyph glyph-name="Egrave" unicode="&#xc8;" horiz-adv-x="569" 
d="M14 0l142 668h455l-17 -81h-359l-43 -203h265l-18 -80h-264l-48 -223h359l-17 -81h-455zM389 744q-51 37 -65.5 51.5t-14.5 32.5q0 12 9 24t27 12q21 0 33 -17l84 -103h-73z" />
    <glyph glyph-name="Eacute" unicode="&#xc9;" horiz-adv-x="569" 
d="M469 0h-455l142 668h455l-17 -81h-359l-43 -203h265l-18 -80h-264l-48 -223h359zM438 744h-81q2 2 33.5 28t63 51.5t39.5 31.5q13 9 26 9q15 0 25.5 -10.5t10.5 -25.5q0 -21 -19 -34q-6 -4 -98 -50z" />
    <glyph glyph-name="Ecircumflex" unicode="&#xca;" horiz-adv-x="569" 
d="M14 0l142 668h455l-17 -81h-359l-43 -203h265l-18 -80h-264l-48 -223h359l-17 -81h-455zM331 750h-96l133 101q25 19 54 19t45 -19l91 -101h-92l-55 61z" />
    <glyph glyph-name="Edieresis" unicode="&#xcb;" horiz-adv-x="569" 
d="M14 0l142 668h455l-17 -81h-359l-43 -203h265l-18 -80h-264l-48 -223h359l-17 -81h-455zM290 742q-22 0 -38 16t-16 38t16 37.5t38 15.5t38 -15.5t16 -37.5t-16 -38t-38 -16zM448 796q0 22 15.5 37.5t37.5 15.5t38 -15.5t16 -37.5t-15.5 -38t-38.5 -16q-22 0 -37.5 16
t-15.5 38z" />
    <glyph glyph-name="Igrave" unicode="&#xcc;" horiz-adv-x="414" 
d="M285 0h-281l16 75h93l110 518h-93l16 75h281l-15 -75h-94l-109 -518h92zM193 828q0 12 9 24t27 12q21 0 33 -17l84 -103h-73q-51 37 -65.5 51.5t-14.5 32.5z" />
    <glyph glyph-name="Iacute" unicode="&#xcd;" horiz-adv-x="414" 
d="M285 0h-281l16 75h93l110 518h-93l16 75h281l-15 -75h-94l-109 -518h92zM343 744h-81q2 2 33.5 28t63 51.5t39.5 31.5q13 9 26 9q15 0 25.5 -10.5t10.5 -25.5q0 -21 -19 -34q-6 -4 -98 -50z" />
    <glyph glyph-name="Icircumflex" unicode="&#xce;" horiz-adv-x="414" 
d="M285 0h-281l16 75h93l110 518h-93l16 75h281l-15 -75h-94l-109 -518h92zM240 747h-96l134 101q25 19 54 19q27 0 45 -19l90 -101h-92l-54 61z" />
    <glyph glyph-name="Idieresis" unicode="&#xcf;" horiz-adv-x="414" 
d="M285 0h-281l16 75h93l110 518h-93l16 75h281l-15 -75h-94l-109 -518h92zM154 794q0 22 16 37.5t38 15.5t38 -15.5t16 -37.5t-16 -38t-38 -16t-38 16t-16 38zM419 740q-22 0 -37.5 16t-15.5 38t15.5 37.5t37.5 15.5t38 -15.5t16 -37.5t-15.5 -38t-38.5 -16z" />
    <glyph glyph-name="Eth" unicode="&#xd0;" horiz-adv-x="712" 
d="M114 303h-92l17 80h92l61 285h184q350 0 291 -349q-26 -157 -141 -238t-291 -81h-185zM351 303h-140l-48 -224h86q281 0 323 246q10 48 7.5 85.5t-9 65.5t-23.5 47.5t-35.5 32t-45.5 20t-52.5 10t-57.5 2.5h-85l-43 -205h140z" />
    <glyph glyph-name="Ntilde" unicode="&#xd1;" 
d="M110 0h-96l142 668h137l186 -574l122 574h96l-142 -668h-137l-185 576zM277 751q39 103 128 103q36 0 73.5 -21t54.5 -21q5 0 9 1t7.5 2t7.5 3t6 3.5t6 5t5 4.5l5 5l5 5q13 13 27 13q18 0 26.5 -16t-1.5 -32q-36 -57 -103 -57q-30 0 -67 21t-62 21q-44 0 -62 -40h-65z
" />
    <glyph glyph-name="Ograve" unicode="&#xd2;" horiz-adv-x="728" 
d="M312 -12q-136 0 -205 99t-47 248q23 155 121.5 250t251.5 95q137 0 207 -100.5t46 -244.5q-11 -68 -38.5 -128t-72 -110t-112.5 -79.5t-151 -29.5zM156 335q-21 -125 29 -196.5t140 -71.5q102 0 173 71.5t92 196.5q21 122 -30 193.5t-140 71.5q-108 0 -176 -73.5
t-88 -191.5zM425 744q-51 37 -65.5 51.5t-14.5 32.5q0 12 9 24t27 12q21 0 33 -17l84 -103h-73z" />
    <glyph glyph-name="Oacute" unicode="&#xd3;" horiz-adv-x="728" 
d="M312 -12q-136 0 -205 99t-47 248q23 155 121.5 250t251.5 95q137 0 207 -100.5t46 -244.5q-11 -68 -38.5 -128t-72 -110t-112.5 -79.5t-151 -29.5zM156 335q-21 -125 29 -196.5t140 -71.5q102 0 173 71.5t92 196.5q21 122 -30 193.5t-140 71.5q-108 0 -176 -73.5
t-88 -191.5zM409 744q2 2 33.5 28t63 51.5t39.5 31.5q13 9 26 9q15 0 25.5 -10.5t10.5 -25.5q0 -21 -19 -34q-6 -4 -98 -50h-81z" />
    <glyph glyph-name="Ocircumflex" unicode="&#xd4;" horiz-adv-x="728" 
d="M312 -12q-136 0 -205 99t-47 248q23 155 121.5 250t251.5 95q137 0 207 -100.5t46 -244.5q-11 -68 -38.5 -128t-72 -110t-112.5 -79.5t-151 -29.5zM156 335q-21 -125 29 -196.5t140 -71.5q102 0 173 71.5t92 196.5q21 122 -30 193.5t-140 71.5q-108 0 -176 -73.5
t-88 -191.5zM394 747h-96l133 101q25 19 54 19t45 -19l91 -101h-92l-55 61z" />
    <glyph glyph-name="Otilde" unicode="&#xd5;" horiz-adv-x="728" 
d="M312 -12q-136 0 -205 99t-47 248q23 155 121.5 250t251.5 95q137 0 207 -100.5t46 -244.5q-11 -68 -38.5 -128t-72 -110t-112.5 -79.5t-151 -29.5zM156 335q-21 -125 29 -196.5t140 -71.5q102 0 173 71.5t92 196.5q21 122 -30 193.5t-140 71.5q-108 0 -176 -73.5
t-88 -191.5zM281 752q39 103 128 103q36 0 73.5 -21t54.5 -21q5 0 9 1t7.5 2t7.5 3t6 3.5t6 5t5 4.5l5 5l5 5q13 13 27 13q18 0 26.5 -15.5t-1.5 -32.5q-36 -57 -103 -57q-30 0 -67 21t-62 21q-44 0 -62 -40h-65z" />
    <glyph glyph-name="Odieresis" unicode="&#xd6;" horiz-adv-x="728" 
d="M312 -12q-136 0 -205 99t-47 248q23 155 121.5 250t251.5 95q137 0 207 -100.5t46 -244.5q-11 -68 -38.5 -128t-72 -110t-112.5 -79.5t-151 -29.5zM156 335q-21 -125 29 -196.5t140 -71.5q102 0 173 71.5t92 196.5q21 122 -30 193.5t-140 71.5q-108 0 -176 -73.5
t-88 -191.5zM310 796q0 22 16 37.5t38 15.5t38 -15.5t16 -37.5t-16 -38t-38 -16t-38 16t-16 38zM522 796q0 22 15.5 37.5t37.5 15.5t38 -15.5t16 -37.5t-15.5 -38t-38.5 -16q-22 0 -37.5 16t-15.5 38z" />
    <glyph glyph-name="multiply" unicode="&#xd7;" horiz-adv-x="593" 
d="M77 404l57 58l154 -154l154 154l57 -58l-153 -154l153 -153l-57 -58l-154 154l-154 -154l-57 58l154 153z" />
    <glyph glyph-name="Oslash" unicode="&#xd8;" horiz-adv-x="728" 
d="M41 -4l-35 36l85 80q-50 93 -31 221q23 156 121.5 251t251.5 95q114 0 184 -73l78 73l35 -37l-81 -76q58 -95 37 -233q-9 -53 -27.5 -102t-50 -93.5t-72.5 -77.5t-98.5 -52.5t-124.5 -19.5q-124 0 -193 82zM189 134q49 -67 137 -67q101 0 172.5 71t92.5 195
q16 96 -14 165zM156 333q-14 -86 8 -152l385 361q-49 58 -129 58q-108 0 -176 -74t-88 -193z" />
    <glyph glyph-name="Ugrave" unicode="&#xd9;" 
d="M286 -12q-140 0 -192.5 70t-19.5 222l83 388h96l-84 -396q-22 -108 5 -155.5t117 -47.5q95 0 147.5 44.5t77.5 158.5l85 396h96l-83 -388q-16 -77 -44 -133t-58.5 -86t-72.5 -47t-75.5 -21.5t-77.5 -4.5zM409 744q-51 37 -65.5 51.5t-14.5 32.5q0 12 9 24t27 12
q21 0 33 -17l84 -103h-73z" />
    <glyph glyph-name="Uacute" unicode="&#xda;" 
d="M286 -12q-140 0 -192.5 70t-19.5 222l83 388h96l-84 -396q-22 -108 5 -155.5t117 -47.5q95 0 147.5 44.5t77.5 158.5l85 396h96l-83 -388q-16 -77 -44 -133t-58.5 -86t-72.5 -47t-75.5 -21.5t-77.5 -4.5zM393 744q2 2 33.5 28t63 51.5t39.5 31.5q13 9 26 9
q15 0 25.5 -10.5t10.5 -25.5q0 -21 -19 -34q-6 -4 -98 -50h-81z" />
    <glyph glyph-name="Ucircumflex" unicode="&#xdb;" 
d="M286 -12q-140 0 -192.5 70t-19.5 222l83 388h96l-84 -396q-22 -108 5 -155.5t117 -47.5q95 0 147.5 44.5t77.5 158.5l85 396h96l-83 -388q-16 -77 -44 -133t-58.5 -86t-72.5 -47t-75.5 -21.5t-77.5 -4.5zM282 747l133 101q25 19 54 19t45 -19l91 -101h-92l-55 61l-80 -61
h-96z" />
    <glyph glyph-name="Udieresis" unicode="&#xdc;" 
d="M286 -12q-140 0 -192.5 70t-19.5 222l83 388h96l-84 -396q-22 -108 5 -155.5t117 -47.5q95 0 147.5 44.5t77.5 158.5l85 396h96l-83 -388q-16 -77 -44 -133t-58.5 -86t-72.5 -47t-75.5 -21.5t-77.5 -4.5zM344 743q-22 0 -38 15.5t-16 38.5q0 22 16 37.5t38 15.5t38 -15.5
t16 -37.5q0 -23 -16 -38.5t-38 -15.5zM502 797q0 22 15.5 37.5t37.5 15.5t38 -15.5t16 -37.5q0 -23 -15.5 -38.5t-38.5 -15.5q-22 0 -37.5 16t-15.5 38z" />
    <glyph glyph-name="Yacute" unicode="&#xdd;" horiz-adv-x="598" 
d="M229 240l-139 428h96l104 -337l264 337h114l-343 -428l-51 -240h-97zM340 744q2 2 33.5 28t63 51.5t39.5 31.5q13 9 26 9q15 0 25.5 -10.5t10.5 -25.5q0 -21 -19 -34q-6 -4 -98 -50h-81z" />
    <glyph glyph-name="Thorn" unicode="&#xde;" horiz-adv-x="586" 
d="M12 -8l142 667h86l-30 -140h127q126 0 184.5 -46t31.5 -155q-23 -91 -92 -127t-201 -36h-127l-35 -163h-86zM150 236h136q147 0 167 85q16 64 -10 90.5t-115 26.5h-135z" />
    <glyph glyph-name="germandbls" unicode="&#xdf;" horiz-adv-x="609" 
d="M100 0h-86l96 452q8 37 15.5 61t27 59t46 56t73 36.5t106.5 15.5q86 0 141 -39.5t51 -116.5q-3 -54 -37 -97t-94 -55q60 -22 86.5 -62t22.5 -113q-4 -76 -51 -126t-113.5 -69t-144.5 -14l-6 79q24 -3 47 -3q73 0 120 33.5t53 102.5q7 69 -34.5 99t-129.5 30l16 77
q76 0 125.5 29t52.5 79q3 45 -25.5 70.5t-83.5 25.5q-78 0 -119 -36t-59 -122z" />
    <glyph glyph-name="agrave" unicode="&#xe0;" horiz-adv-x="520" 
d="M153 -12q-65 0 -107 35.5t-42 93.5q0 140 242 177q22 3 123 14q31 128 -85 128q-92 0 -127 -77l-75 23q26 58 76.5 90t121.5 32q105 0 150 -50.5t24 -151.5l-24 -114q-21 -104 -23 -188h-79l-4 63q-66 -75 -171 -75zM99 139q-6 -40 17.5 -61t63.5 -21q68 0 116.5 45.5
t61.5 121.5l3 17q-136 -13 -195 -32t-67 -70zM223 648q-9 13 -6.5 29t14.5 24q10 7 23 7q20 0 30 -15l76 -121h-68q-53 54 -69 76z" />
    <glyph glyph-name="aacute" unicode="&#xe1;" horiz-adv-x="520" 
d="M153 -12q-65 0 -107 35.5t-42 93.5q0 140 242 177q22 3 123 14q31 128 -85 128q-92 0 -127 -77l-75 23q26 58 76.5 90t121.5 32q105 0 150 -50.5t24 -151.5l-24 -114q-21 -104 -23 -188h-79l-4 63q-66 -75 -171 -75zM99 139q-6 -40 17.5 -61t63.5 -21q68 0 116.5 45.5
t61.5 121.5l3 17q-136 -13 -195 -32t-67 -70zM274 572q101 109 121 126q11 9 25 9q17 0 29 -12q10 -12 9 -28t-12 -26l-98 -69h-74z" />
    <glyph glyph-name="acircumflex" unicode="&#xe2;" horiz-adv-x="520" 
d="M4 117q0 140 242 177q22 3 123 14q31 128 -85 128q-92 0 -127 -77l-75 23q26 58 76.5 90t121.5 32q105 0 150 -50.5t24 -151.5l-24 -114q-21 -104 -23 -188h-79l-4 63q-66 -75 -171 -75q-65 0 -107 35.5t-42 93.5zM99 139q-6 -40 17.5 -61t63.5 -21q68 0 116.5 45.5
t61.5 121.5l3 17q-136 -13 -195 -32t-67 -70zM259 575h-96l134 101q25 19 54 19q27 0 45 -19l90 -101h-92l-54 61z" />
    <glyph glyph-name="atilde" unicode="&#xe3;" horiz-adv-x="520" 
d="M4 117q0 140 242 177q22 3 123 14q31 128 -85 128q-92 0 -127 -77l-75 23q26 58 76.5 90t121.5 32q105 0 150 -50.5t24 -151.5l-24 -114q-21 -104 -23 -188h-79l-4 63q-66 -75 -171 -75q-65 0 -107 35.5t-42 93.5zM99 139q-6 -40 17.5 -61t63.5 -21q68 0 116.5 45.5
t61.5 121.5l3 17q-136 -13 -195 -32t-67 -70zM214 577h-65q39 103 128 103q36 0 73.5 -21t54.5 -21q5 0 9 1t7.5 2t7.5 3t6 3.5t6 5t5 4.5l5 5l5 5q13 13 27 13q18 0 26.5 -16t-1.5 -32q-36 -57 -103 -57q-30 0 -67 21t-62 21q-44 0 -62 -40z" />
    <glyph glyph-name="adieresis" unicode="&#xe4;" horiz-adv-x="520" 
d="M153 -12q-65 0 -107 35.5t-42 93.5q0 140 242 177q22 3 123 14q31 128 -85 128q-92 0 -127 -77l-75 23q26 58 76.5 90t121.5 32q105 0 150 -50.5t24 -151.5l-24 -114q-21 -104 -23 -188h-79l-4 63q-66 -75 -171 -75zM99 139q-6 -40 17.5 -61t63.5 -21q68 0 116.5 45.5
t61.5 121.5l3 17q-136 -13 -195 -32t-67 -70zM175 644q0 22 16 37.5t38 15.5t38 -15.5t16 -37.5t-15.5 -38t-38.5 -16t-38.5 16t-15.5 38zM387 644q0 22 15.5 37.5t37.5 15.5t38 -15.5t16 -37.5t-16 -38t-38 -16t-37.5 16t-15.5 38z" />
    <glyph glyph-name="aring" unicode="&#xe5;" horiz-adv-x="520" 
d="M4 117q0 140 242 177q22 3 123 14q31 128 -85 128q-92 0 -127 -77l-75 23q26 58 76.5 90t121.5 32q105 0 150 -50.5t24 -151.5l-24 -114q-21 -104 -23 -188h-79l-4 63q-66 -75 -171 -75q-65 0 -107 35.5t-42 93.5zM234 668q0 45 32.5 77t78.5 32q45 0 76 -32t31 -77
t-31 -77t-76 -32q-46 0 -78.5 32t-32.5 77zM99 139q-6 -40 17.5 -61t63.5 -21q68 0 116.5 45.5t61.5 121.5l3 17q-136 -13 -195 -32t-67 -70zM343 719q-22 0 -37 -15t-15 -36t15 -36t37 -15t37 15t15 36t-15 36t-37 15z" />
    <glyph glyph-name="ae" unicode="&#xe6;" horiz-adv-x="869" 
d="M71 7q-33 17 -50 47t-16.5 60.5t10.5 58t26 44.5q38 39 104.5 57t220.5 18q19 72 0.5 107.5t-81.5 35.5q-92 0 -126 -77l-76 24q27 60 81.5 93t128.5 29q117 -6 152 -72q75 72 191 72q58 0 102 -23t66 -61.5t30 -89t-7 -105.5h-385q-9 -86 31 -124.5t102 -38.5
q77 0 123 49l78 -24q-77 -99 -212 -99q-132 0 -183 112q-38 -58 -96.5 -85t-120.5 -27q-55 0 -93 19zM101 139q-7 -35 11.5 -59t61.5 -24q70 1 119 46.5t65 121.5q-53 0 -91 -3t-76.5 -11t-61.5 -26t-28 -45zM455 292h292q7 55 -24 97.5t-99 42.5q-59 0 -107 -38t-62 -102z
" />
    <glyph glyph-name="ccedilla" unicode="&#xe7;" horiz-adv-x="493" 
d="M177 -8q-85 14 -124.5 83t-23.5 173q18 114 89 185t178 71q134 0 185 -111l-83 -29q-10 30 -39 48t-67 18q-74 0 -116.5 -52.5t-55.5 -128.5q-13 -82 14 -134.5t105 -52.5q75 0 124 65l71 -28q-68 -111 -213 -111l-27 -33q66 11 85 -29q16 -34 -14 -69q-33 -37 -95 -37
q-40 0 -87 17l23 37q31 -14 57 -14q42 0 55 26q10 21 -13 29q-8 3 -19 3q-14 0 -30 -4q-15 -4 -22 7t3 22z" />
    <glyph glyph-name="egrave" unicode="&#xe8;" horiz-adv-x="541" 
d="M237 -12q-110 0 -166.5 71t-40.5 189q17 121 92 188.5t186 67.5q116 0 167 -82t24 -197h-384q-9 -86 30.5 -124.5t101.5 -38.5q77 0 123 49l78 -24q-77 -99 -211 -99zM296 432q-58 0 -106.5 -37.5t-62.5 -101.5h293q6 55 -25 97t-99 42zM231 647q-9 13 -6.5 29t14.5 24
q10 7 23 7q20 0 30 -15l76 -121h-68q-53 54 -69 76z" />
    <glyph glyph-name="eacute" unicode="&#xe9;" horiz-adv-x="541" 
d="M237 -12q-110 0 -166.5 71t-40.5 189q17 121 92 188.5t186 67.5q116 0 167 -82t24 -197h-384q-9 -86 30.5 -124.5t101.5 -38.5q77 0 123 49l78 -24q-77 -99 -211 -99zM296 432q-58 0 -106.5 -37.5t-62.5 -101.5h293q6 55 -25 97t-99 42zM293 572q101 109 121 126
q10 9 25 9q17 0 29 -12q10 -12 9 -28t-12 -26l-98 -69h-74z" />
    <glyph glyph-name="ecircumflex" unicode="&#xea;" horiz-adv-x="541" 
d="M237 -12q-110 0 -166.5 71t-40.5 189q17 121 92 188.5t186 67.5q116 0 167 -82t24 -197h-384q-9 -86 30.5 -124.5t101.5 -38.5q77 0 123 49l78 -24q-77 -99 -211 -99zM296 432q-58 0 -106.5 -37.5t-62.5 -101.5h293q6 55 -25 97t-99 42zM166 575l134 101q25 19 54 19
q27 0 45 -19l90 -101h-92l-54 61l-81 -61h-96z" />
    <glyph glyph-name="edieresis" unicode="&#xeb;" horiz-adv-x="541" 
d="M237 -12q-110 0 -166.5 71t-40.5 189q17 121 92 188.5t186 67.5q116 0 167 -82t24 -197h-384q-9 -86 30.5 -124.5t101.5 -38.5q77 0 123 49l78 -24q-77 -99 -211 -99zM296 432q-58 0 -106.5 -37.5t-62.5 -101.5h293q6 55 -25 97t-99 42zM193 644q0 22 16 37.5t38 15.5
t38 -15.5t16 -37.5t-15.5 -38t-38.5 -16t-38.5 16t-15.5 38zM458 590q-22 0 -37.5 16t-15.5 38t15.5 37.5t37.5 15.5t38 -15.5t16 -37.5t-16 -38t-38 -16z" />
    <glyph glyph-name="igrave" unicode="&#xec;" horiz-adv-x="270" 
d="M132 0h-86l91 428h-80l14 68h166zM112 647q-9 13 -6.5 29t14.5 24q10 7 23 7q19 0 30 -15l76 -121h-68q-53 54 -69 76z" />
    <glyph glyph-name="iacute" unicode="&#xed;" horiz-adv-x="270" 
d="M47 1l91 428h-80l14 68h166l-105 -496h-86zM238 570h-74q101 109 121 126q11 9 25 9q17 0 29 -12q10 -12 9 -28t-12 -26z" />
    <glyph glyph-name="icircumflex" unicode="&#xee;" horiz-adv-x="270" 
d="M47 1l91 428h-80l14 68h166l-105 -496h-86zM38 575l133 101q25 19 54 19t45 -19l91 -101h-92l-55 61l-80 -61h-96z" />
    <glyph glyph-name="idieresis" unicode="&#xef;" horiz-adv-x="270" 
d="M132 0h-86l91 428h-80l14 68h166zM91 584q-23 0 -38.5 16t-15.5 38t16 37.5t38 15.5t38 -15.5t16 -37.5t-15.5 -38t-38.5 -16zM302 584q-22 0 -37.5 16t-15.5 38t15.5 37.5t37.5 15.5t38 -15.5t16 -37.5t-16 -38t-38 -16z" />
    <glyph glyph-name="eth" unicode="&#xf0;" horiz-adv-x="570" 
d="M231 -12q-93 0 -154.5 69t-52.5 162q10 99 76 162.5t169 63.5q61 0 106 -31.5t61 -74.5q17 146 -43 211l-93 -77l-28 36l84 70q-53 29 -136 24l16 76q120 3 188 -44l53 44l29 -36l-47 -38q70 -77 66 -240q-1 -29 -5.5 -62.5t-15.5 -78.5t-33 -85t-52.5 -75t-79 -55.5
t-108.5 -20.5zM108 219q-9 -62 28 -111t105 -49q65 0 107 42.5t50 113.5t-28 113t-97 42q-69 0 -112.5 -40.5t-52.5 -110.5z" />
    <glyph glyph-name="ntilde" unicode="&#xf1;" horiz-adv-x="550" 
d="M94 0h-86l105 496h64l6 -69q59 77 173 77q81 0 114.5 -54.5t10.5 -162.5l-62 -287h-85l59 279q17 85 0.5 118t-74.5 33q-60 0 -105.5 -41t-65.5 -132zM222 577h-65q39 103 128 103q36 0 73.5 -21t54.5 -21q5 0 9 1t7.5 2t7.5 3t6 3.5t6 5t5 4.5l5 5l5 5q13 13 27 13
q18 0 26.5 -16t-1.5 -32q-36 -57 -103 -57q-30 0 -67 21t-62 21q-44 0 -62 -40z" />
    <glyph glyph-name="ograve" unicode="&#xf2;" horiz-adv-x="547" 
d="M230 -12q-110 0 -163 72t-37 187q9 66 36.5 117t66.5 81t82 44.5t88 14.5q96 0 156 -69t38 -198q-7 -39 -24.5 -79t-48 -80t-81.5 -65t-113 -25zM119 247q-15 -83 16.5 -134t101.5 -51q67 0 112 50t59 135q29 183 -118 183q-139 0 -171 -183zM231 647q-9 13 -6.5 29
t14.5 24q10 7 23 7q20 0 30 -15l76 -121h-68q-54 54 -69 76z" />
    <glyph glyph-name="oacute" unicode="&#xf3;" horiz-adv-x="547" 
d="M230 -12q-110 0 -163 72t-37 187q9 66 36.5 117t66.5 81t82 44.5t88 14.5q96 0 156 -69t38 -198q-7 -39 -24.5 -79t-48 -80t-81.5 -65t-113 -25zM119 247q-15 -83 16.5 -134t101.5 -51q67 0 112 50t59 135q29 183 -118 183q-139 0 -171 -183zM369 572h-74
q101 109 121 126q10 9 25 9q17 0 29 -12q10 -12 9 -28t-12 -26z" />
    <glyph glyph-name="ocircumflex" unicode="&#xf4;" horiz-adv-x="547" 
d="M230 -12q-110 0 -163 72t-37 187q9 66 36.5 117t66.5 81t82 44.5t88 14.5q96 0 156 -69t38 -198q-7 -39 -24.5 -79t-48 -80t-81.5 -65t-113 -25zM119 247q-15 -83 16.5 -134t101.5 -51q67 0 112 50t59 135q29 183 -118 183q-139 0 -171 -183zM268 575h-96l134 101
q25 19 54 19q27 0 45 -19l90 -101h-92l-54 61z" />
    <glyph glyph-name="otilde" unicode="&#xf5;" horiz-adv-x="547" 
d="M230 -12q-110 0 -163 72t-37 187q9 66 36.5 117t66.5 81t82 44.5t88 14.5q96 0 156 -69t38 -198q-7 -39 -24.5 -79t-48 -80t-81.5 -65t-113 -25zM119 247q-15 -83 16.5 -134t101.5 -51q67 0 112 50t59 135q29 183 -118 183q-139 0 -171 -183zM157 577q39 103 128 103
q36 0 73.5 -21t54.5 -21q7 0 13 1.5t12 5.5t8.5 6t9.5 8.5t8 7.5q13 13 27 13q18 0 26.5 -16t-1.5 -32q-36 -57 -103 -57q-30 0 -67 21t-62 21q-44 0 -62 -40h-65z" />
    <glyph glyph-name="odieresis" unicode="&#xf6;" horiz-adv-x="547" 
d="M230 -12q-110 0 -163 72t-37 187q9 66 36.5 117t66.5 81t82 44.5t88 14.5q96 0 156 -69t38 -198q-7 -39 -24.5 -79t-48 -80t-81.5 -65t-113 -25zM119 247q-15 -83 16.5 -134t101.5 -51q67 0 112 50t59 135q29 183 -118 183q-139 0 -171 -183zM187 644q0 22 16 37.5
t38 15.5t38 -15.5t16 -37.5t-15.5 -38t-38.5 -16t-38.5 16t-15.5 38zM399 644q0 22 15.5 37.5t37.5 15.5t38 -15.5t16 -37.5t-16 -38t-38 -16t-37.5 16t-15.5 38z" />
    <glyph glyph-name="divide" unicode="&#xf7;" horiz-adv-x="619" 
d="M52 289h496v-81h-496v81zM300 354q-27 0 -46 18.5t-19 45.5t19 46t46 19t45.5 -19t18.5 -46t-18.5 -45.5t-45.5 -18.5zM300 14q-27 0 -46 19t-19 46q0 26 19 45t46 19t45.5 -19t18.5 -45q0 -27 -18.5 -46t-45.5 -19z" />
    <glyph glyph-name="oslash" unicode="&#xf8;" horiz-adv-x="547" 
d="M24 -11l-35 37l62 58q-34 66 -22 162q18 128 97.5 193t175.5 65q86 0 140 -53l61 58l35 -37l-64 -61q40 -72 22 -175q-7 -39 -24.5 -78.5t-48.5 -79.5t-81 -65t-112 -25q-96 0 -149 55zM144 102q31 -40 93 -40q66 0 111 50t59 134q10 61 -1 102zM119 246q-9 -56 1 -97
l263 246q-32 35 -94 35q-61 0 -107 -42.5t-63 -141.5z" />
    <glyph glyph-name="ugrave" unicode="&#xf9;" horiz-adv-x="540" 
d="M173 -11q-89 0 -116.5 60t-7.5 154l62 293h86l-62 -291q-7 -40 -9 -71.5t17 -51.5t60 -20q131 0 169 174l56 260h85l-105 -496h-65l-6 70q-33 -43 -70.5 -62t-93.5 -19zM229 647q-9 13 -6.5 29t14.5 24q10 7 23 7q20 0 30 -15l76 -121h-68q-53 54 -69 76z" />
    <glyph glyph-name="uacute" unicode="&#xfa;" horiz-adv-x="540" 
d="M173 -11q-89 0 -116.5 60t-7.5 154l62 293h86l-62 -291q-7 -40 -9 -71.5t17 -51.5t60 -20q131 0 169 174l56 260h85l-105 -496h-65l-6 70q-33 -43 -70.5 -62t-93.5 -19zM367 572h-74q101 109 121 126q10 9 25 9q17 0 29 -12q10 -12 9 -28t-12 -26z" />
    <glyph glyph-name="ucircumflex" unicode="&#xfb;" horiz-adv-x="540" 
d="M173 -11q-89 0 -116.5 60t-7.5 154l62 293h86l-62 -291q-7 -40 -9 -71.5t17 -51.5t60 -20q131 0 169 174l56 260h85l-105 -496h-65l-6 70q-33 -43 -70.5 -62t-93.5 -19zM265 575h-96l134 101q25 19 54 19q27 0 45 -19l90 -101h-92l-54 61z" />
    <glyph glyph-name="udieresis" unicode="&#xfc;" horiz-adv-x="540" 
d="M173 -11q-89 0 -116.5 60t-7.5 154l62 293h86l-62 -291q-7 -40 -9 -71.5t17 -51.5t60 -20q131 0 169 174l56 260h85l-105 -496h-65l-6 70q-33 -43 -70.5 -62t-93.5 -19zM182 644q0 22 16 37.5t38 15.5t38 -15.5t16 -37.5t-16 -38t-38 -16t-38 16t-16 38zM447 590
q-22 0 -37.5 16t-15.5 38t15.5 37.5t37.5 15.5t38 -15.5t16 -37.5t-15.5 -38t-38.5 -16z" />
    <glyph glyph-name="yacute" unicode="&#xfd;" horiz-adv-x="435" 
d="M-19 -161h-43l16 75h34q60 0 80 14.5t48 71.5l-73 496h89l40 -386l206 386h100l-287 -517q-52 -94 -85 -117t-125 -23zM309 572h-74q101 109 121 126q10 9 25 9q17 0 29 -12q10 -12 9 -28t-12 -26z" />
    <glyph glyph-name="thorn" unicode="&#xfe;" horiz-adv-x="558" 
d="M-26 -161l176 829h86l-48 -230q52 66 140 66q82 0 132 -56t50 -157q-1 -138 -72 -220.5t-173 -82.5q-57 0 -96.5 30.5t-53.5 75.5l-55 -255h-86zM141 218q0 -76 32.5 -117t88.5 -41q49 0 86 37.5t54 88t17 102.5q1 72 -29 108t-81 36q-55 0 -95 -38t-56.5 -85t-16.5 -91z
" />
    <glyph glyph-name="ydieresis" unicode="&#xff;" horiz-adv-x="435" 
d="M-62 -161l16 75h34q60 0 80 14.5t48 71.5l-73 496h89l40 -386l206 386h100l-287 -517q-52 -94 -85 -117t-125 -23h-43zM184 590q-22 0 -38 16t-16 38t16 37.5t38 15.5t38 -15.5t16 -37.5t-16 -38t-38 -16zM342 644q0 22 15.5 37.5t37.5 15.5t38 -15.5t16 -37.5t-15.5 -38
t-38.5 -16q-22 0 -37.5 16t-15.5 38z" />
    <glyph glyph-name="Amacron" unicode="&#x100;" horiz-adv-x="627" 
d="M-52 0l392 668h116l109 -668h-103l-21 146h-302l-83 -146h-108zM184 226h246l-49 347zM555 762h-276l15 67h276z" />
    <glyph glyph-name="amacron" unicode="&#x101;" horiz-adv-x="520" 
d="M4 117q0 140 242 177q22 3 123 14q31 128 -85 128q-92 0 -127 -77l-75 23q26 58 76.5 90t121.5 32q105 0 150 -50.5t24 -151.5l-24 -114q-21 -104 -23 -188h-79l-4 63q-66 -75 -171 -75q-65 0 -107 35.5t-42 93.5zM99 139q-6 -40 17.5 -61t63.5 -21q68 0 116.5 45.5
t61.5 121.5l3 17q-136 -13 -195 -32t-67 -70zM467 601h-276l14 67h276z" />
    <glyph glyph-name="Abreve" unicode="&#x102;" horiz-adv-x="627" 
d="M-52 0l392 668h116l109 -668h-103l-21 146h-302l-83 -146h-108zM184 226h246l-49 347zM512 855h69q-20 -50 -62.5 -85t-102.5 -35t-94.5 37t-34.5 83h69q10 -53 67 -53q56 0 89 53z" />
    <glyph glyph-name="abreve" unicode="&#x103;" horiz-adv-x="520" 
d="M328 0l-4 63q-66 -75 -171 -75q-65 0 -107 35.5t-42 93.5q0 140 242 177q22 3 123 14q31 128 -85 128q-92 0 -127 -77l-75 23q26 58 76.5 90t121.5 32q105 0 150 -50.5t24 -151.5l-24 -114q-21 -104 -23 -188h-79zM361 241q-136 -13 -195 -32t-67 -70q-6 -40 17.5 -61
t63.5 -21q68 0 116.5 45.5t61.5 121.5zM423 689h69q-20 -50 -62.5 -85t-102.5 -35t-94.5 37t-34.5 83h69q10 -53 67 -53q56 0 89 53z" />
    <glyph glyph-name="Aogonek" unicode="&#x104;" horiz-adv-x="627" 
d="M56 0h-108l392 668h116l109 -668q-49 -18 -78.5 -41t-29.5 -48q0 -12 11.5 -19.5t29.5 -7.5q20 0 44 9l-11 -54q-39 -12 -67 -12q-40 0 -62 19t-22 48q0 34 29 63t77 43h-24l-21 146h-302zM381 573l-197 -347h246z" />
    <glyph glyph-name="aogonek" unicode="&#x105;" horiz-adv-x="520" 
d="M4 117q0 140 242 177q22 3 123 14q31 128 -85 128q-92 0 -127 -77l-75 23q26 58 76.5 90t121.5 32q105 0 150 -50.5t24 -151.5l-24 -114q-21 -104 -23 -188q-49 -18 -78.5 -41t-29.5 -48q0 -12 11.5 -19.5t29.5 -7.5q20 0 44 9l-11 -54q-39 -12 -67 -12q-40 0 -62 19
t-22 48q0 34 29 63t77 43l-4 63q-66 -75 -171 -75q-65 0 -107 35.5t-42 93.5zM99 139q-6 -40 17.5 -61t63.5 -21q68 0 116.5 45.5t61.5 121.5l3 17q-136 -13 -195 -32t-67 -70z" />
    <glyph glyph-name="Cacute" unicode="&#x106;" horiz-adv-x="666" 
d="M316 -12q-65 0 -115.5 20.5t-79.5 55.5t-47.5 80t-19 94t5.5 98q26 152 123.5 248t238.5 96q89 0 149.5 -38t84.5 -114l-89 -30q-16 50 -56.5 76t-98.5 26q-95 0 -164.5 -71.5t-91.5 -192.5q-21 -115 27.5 -192t142.5 -77q65 0 110 25t81 79l79 -31q-95 -152 -280 -152z
M408 744q2 2 33.5 28t63 51.5t39.5 31.5q14 9 26 9q15 0 25.5 -10.5t10.5 -25.5q0 -21 -19 -34q-6 -4 -98 -50h-81z" />
    <glyph glyph-name="cacute" unicode="&#x107;" horiz-adv-x="493" 
d="M220 -12q-106 0 -157.5 71t-33.5 189q18 114 89 185t178 71q134 0 185 -111l-83 -29q-10 30 -39 48t-67 18q-74 0 -116.5 -52.5t-55.5 -128.5q-13 -82 14 -134.5t105 -52.5q75 0 124 65l71 -28q-33 -54 -89.5 -82.5t-124.5 -28.5zM287 572q101 109 121 126q11 9 25 9
q17 0 29 -12q10 -12 9 -28t-12 -26l-98 -69h-74z" />
    <glyph glyph-name="Cdotaccent" unicode="&#x10a;" horiz-adv-x="666" 
d="M316 -12q-65 0 -115.5 20.5t-79.5 55.5t-47.5 80t-19 94t5.5 98q26 152 123.5 248t238.5 96q89 0 149.5 -38t84.5 -114l-89 -30q-16 50 -56.5 76t-98.5 26q-95 0 -164.5 -71.5t-91.5 -192.5q-21 -115 27.5 -192t142.5 -77q65 0 110 25t81 79l79 -31q-95 -152 -280 -152z
M467 742q-23 0 -38.5 16t-15.5 38t15.5 38t38.5 16t38.5 -16t15.5 -38t-15.5 -38t-38.5 -16z" />
    <glyph glyph-name="cdotaccent" unicode="&#x10b;" horiz-adv-x="493" 
d="M220 -12q-106 0 -157.5 71t-33.5 189q18 114 89 185t178 71q134 0 185 -111l-83 -29q-10 30 -39 48t-67 18q-74 0 -116.5 -52.5t-55.5 -128.5q-13 -82 14 -134.5t105 -52.5q75 0 124 65l71 -28q-33 -54 -89.5 -82.5t-124.5 -28.5zM352 590q-22 0 -38 16t-16 38t16 38
t38 16t38 -16t16 -38t-16 -38t-38 -16z" />
    <glyph glyph-name="Ccaron" unicode="&#x10c;" horiz-adv-x="666" 
d="M316 -12q-65 0 -115.5 20.5t-79.5 55.5t-47.5 80t-19 94t5.5 98q26 152 123.5 248t238.5 96q89 0 149.5 -38t84.5 -114l-89 -30q-16 50 -56.5 76t-98.5 26q-95 0 -164.5 -71.5t-91.5 -192.5q-21 -115 27.5 -192t142.5 -77q65 0 110 25t81 79l79 -31q-95 -152 -280 -152z
M312 861h91l54 -61l81 61h97l-133 -101q-25 -19 -53 -19q-30 0 -46 19z" />
    <glyph glyph-name="ccaron" unicode="&#x10d;" horiz-adv-x="493" 
d="M220 -12q-106 0 -157.5 71t-33.5 189q18 114 89 185t178 71q134 0 185 -111l-83 -29q-10 30 -39 48t-67 18q-74 0 -116.5 -52.5t-55.5 -128.5q-13 -82 14 -134.5t105 -52.5q75 0 124 65l71 -28q-33 -54 -89.5 -82.5t-124.5 -28.5zM192 689h91l54 -61l81 61h97l-133 -101
q-25 -19 -53 -19q-30 0 -46 19z" />
    <glyph glyph-name="Dcaron" unicode="&#x10e;" horiz-adv-x="676" 
d="M14 0l142 668h184q350 0 291 -349q-26 -157 -141 -238t-291 -81h-185zM127 79h86q281 0 323 246q10 48 7.5 85.5t-9 65.5t-23.5 47.5t-35.5 32t-45.5 20t-52.5 10t-57.5 2.5h-85zM289 861h91l54 -61l81 61h97l-133 -101q-25 -19 -53 -19q-30 0 -46 19z" />
    <glyph glyph-name="dcaron" unicode="&#x10f;" horiz-adv-x="587" 
d="M361 0l-5 61q-58 -73 -151 -73q-94 0 -142 73.5t-33 185.5q16 119 82 188t159 69q57 0 97.5 -29.5t55.5 -76.5l57 270h86q-77 -360 -102 -480q-22 -107 -23 -188h-81zM226 60q74 0 118.5 58t51.5 129q8 85 -22 135t-94 50q-65 0 -105.5 -52t-53.5 -133q-14 -89 18 -138
t87 -49zM619 496h-49q0 1 13.5 37.5t27 71t18.5 45.5q4 10 15 19.5t27 9.5q19 0 27.5 -13.5t-0.5 -35.5z" />
    <glyph glyph-name="Dcroat" unicode="&#x110;" horiz-adv-x="732" 
d="M134 303h-92l17 80h92l61 285h184q350 0 291 -349q-26 -157 -141 -238t-291 -81h-185zM371 303h-140l-48 -224h86q281 0 323 246q10 48 7.5 85.5t-9 65.5t-23.5 47.5t-35.5 32t-45.5 20t-52.5 10t-57.5 2.5h-85l-43 -205h140z" />
    <glyph glyph-name="dcroat" unicode="&#x111;" horiz-adv-x="601" 
d="M205 -12q-94 0 -142 73.5t-33 185.5q16 119 82 188t159 69q57 0 97.5 -29.5t55.5 -76.5l32 150h-163l15 67h162l11 53h86q-4 -20 -11 -53h81l-15 -67h-81q-56 -258 -76 -360q-22 -107 -23 -188h-81l-5 61q-58 -73 -151 -73zM121 247q-14 -89 18 -138t87 -49
q74 0 118.5 58t51.5 129q8 85 -22 135t-94 50q-65 0 -105.5 -52t-53.5 -133z" />
    <glyph glyph-name="Emacron" unicode="&#x112;" horiz-adv-x="569" 
d="M14 0l142 668h455l-17 -81h-359l-43 -203h265l-18 -80h-264l-48 -223h359l-17 -81h-455zM264 762l15 67h276l-15 -67h-276z" />
    <glyph glyph-name="emacron" unicode="&#x113;" horiz-adv-x="541" 
d="M237 -12q-110 0 -166.5 71t-40.5 189q17 121 92 188.5t186 67.5q116 0 167 -82t24 -197h-384q-9 -86 30.5 -124.5t101.5 -38.5q77 0 123 49l78 -24q-77 -99 -211 -99zM296 432q-58 0 -106.5 -37.5t-62.5 -101.5h293q6 55 -25 97t-99 42zM483 601h-276l14 67h276z" />
    <glyph glyph-name="Edotaccent" unicode="&#x116;" horiz-adv-x="569" 
d="M469 0h-455l142 668h455l-17 -81h-359l-43 -203h265l-18 -80h-264l-48 -223h359zM413 762q-23 0 -38.5 16t-15.5 38t15.5 38t38.5 16t38.5 -16t15.5 -38t-15.5 -38t-38.5 -16z" />
    <glyph glyph-name="edotaccent" unicode="&#x117;" horiz-adv-x="541" 
d="M237 -12q-110 0 -166.5 71t-40.5 189q17 121 92 188.5t186 67.5q116 0 167 -82t24 -197h-384q-9 -86 30.5 -124.5t101.5 -38.5q77 0 123 49l78 -24q-77 -99 -211 -99zM296 432q-58 0 -106.5 -37.5t-62.5 -101.5h293q6 55 -25 97t-99 42zM300 644q0 22 16 38t38 16t38 -16
t16 -38t-16 -38t-38 -16t-38 16t-16 38z" />
    <glyph glyph-name="Eogonek" unicode="&#x118;" horiz-adv-x="569" 
d="M369 0h-355l142 668h455l-17 -81h-359l-43 -203h265l-18 -80h-264l-48 -223h359l-17 -81h-21q-49 -18 -78.5 -41t-29.5 -48q0 -12 11.5 -19.5t29.5 -7.5q20 0 44 9l-11 -54q-39 -12 -67 -12q-40 0 -62 19t-22 48q0 34 29 63t77 43z" />
    <glyph glyph-name="eogonek" unicode="&#x119;" horiz-adv-x="541" 
d="M234 -12q-109 2 -164.5 72.5t-39.5 187.5q17 121 92 188.5t186 67.5q116 0 167 -82t24 -197h-384q-9 -86 30.5 -124.5t101.5 -38.5q77 0 123 49l78 -24q-45 -58 -112 -82q-77 -37 -77 -88q0 -33 42 -33q19 0 43 9l-11 -54q-37 -12 -67 -12q-40 0 -62 20t-22 53
q0 50 52 88zM296 432q-58 0 -106.5 -37.5t-62.5 -101.5h293q6 55 -25 97t-99 42z" />
    <glyph glyph-name="Ecaron" unicode="&#x11a;" horiz-adv-x="569" 
d="M469 0h-455l142 668h455l-17 -81h-359l-43 -203h265l-18 -80h-264l-48 -223h359zM265 861h91l54 -61l81 61h97l-133 -101q-25 -19 -53 -19q-30 0 -46 19z" />
    <glyph glyph-name="ecaron" unicode="&#x11b;" horiz-adv-x="541" 
d="M237 -12q-110 0 -166.5 71t-40.5 189q17 121 92 188.5t186 67.5q116 0 167 -82t24 -197h-384q-9 -86 30.5 -124.5t101.5 -38.5q77 0 123 49l78 -24q-77 -99 -211 -99zM296 432q-58 0 -106.5 -37.5t-62.5 -101.5h293q6 55 -25 97t-99 42zM296 588l-91 101h91l54 -61l81 61
h97l-133 -101q-25 -19 -53 -19q-30 0 -46 19z" />
    <glyph glyph-name="Gbreve" unicode="&#x11e;" horiz-adv-x="713" 
d="M352 264l17 80h287l-74 -344h-56l-6 82q-84 -94 -219 -94q-132 0 -197.5 97.5t-43.5 250.5q22 148 120 246t239 98q192 0 237 -152l-89 -30q-12 43 -51.5 72.5t-103.5 29.5q-94 0 -165 -71t-91 -193q-20 -120 27.5 -193t134.5 -76q182 -7 225 176l5 21h-196zM560 861h69
q-20 -50 -62.5 -85t-102.5 -35t-94.5 37t-34.5 83h69q10 -53 67 -53q56 0 89 53z" />
    <glyph glyph-name="gbreve" unicode="&#x11f;" horiz-adv-x="554" 
d="M-5 -78l90 25q6 -28 34.5 -47t73.5 -17q69 3 100.5 38.5t47.5 101.5l13 57q-23 -30 -58.5 -46.5t-73 -18t-74.5 14t-64.5 44t-42 76.5t-8.5 108q8 72 36 125t66 79.5t82.5 37.5t85 3t74 -30t48.5 -55l40 78h62q-71 -337 -95 -449q-18 -82 -32 -114q-58 -123 -221 -123
q-64 0 -115 30t-69 82zM242 89q59 -2 99.5 44.5t53.5 122.5q14 82 -22.5 129t-97.5 47q-62 0 -102.5 -46.5t-50.5 -129.5q-10 -75 24 -120t96 -47zM431 689h69q-20 -50 -62.5 -85t-102.5 -35t-94.5 37t-34.5 83h69q10 -53 67 -53q56 0 89 53z" />
    <glyph glyph-name="Gdotaccent" unicode="&#x120;" horiz-adv-x="713" 
d="M301 -12q-132 0 -197.5 97.5t-43.5 250.5q22 148 120 246t239 98q192 0 237 -152l-89 -30q-12 43 -51.5 72.5t-103.5 29.5q-94 0 -165 -71t-91 -193q-20 -120 27.5 -193t134.5 -76q182 -7 225 176l5 21h-196l17 80h287l-74 -344h-56l-6 82q-84 -94 -219 -94zM467 762
q-23 0 -38.5 16t-15.5 38t15.5 38t38.5 16t38.5 -16t15.5 -38t-15.5 -38t-38.5 -16z" />
    <glyph glyph-name="gdotaccent" unicode="&#x121;" horiz-adv-x="554" 
d="M179 -190q-64 0 -115 30t-69 82l90 25q6 -28 34.5 -47t73.5 -17q69 3 100.5 38.5t47.5 101.5l13 57q-49 -64 -136 -64q-82 0 -139.5 64t-45.5 178q13 124 80 186t152 62q53 0 97 -24t63 -64l40 78h62q-71 -337 -95 -449q-18 -82 -32 -114q-58 -123 -221 -123zM122 256
q-10 -75 24 -120t96 -47q59 -2 99.5 44.5t53.5 122.5q14 82 -22.5 129t-97.5 47q-62 0 -102.5 -46.5t-50.5 -129.5zM349 591q-23 0 -38.5 15.5t-15.5 38.5t15.5 38.5t38.5 15.5t38.5 -15.5t15.5 -38.5t-15.5 -38.5t-38.5 -15.5z" />
    <glyph glyph-name="uni0122" unicode="&#x122;" horiz-adv-x="713" 
d="M352 264l17 80h287l-74 -344h-56l-6 82q-84 -94 -219 -94q-132 0 -197.5 97.5t-43.5 250.5q22 148 120 246t239 98q192 0 237 -152l-89 -30q-12 43 -51.5 72.5t-103.5 29.5q-94 0 -165 -71t-91 -193q-20 -120 27.5 -193t134.5 -76q182 -7 225 176l5 21h-196zM183 -251
l-25 36q29 -3 61 13t40 55q5 20 -3.5 37t-26.5 25l60 29q48 -30 37 -87q-9 -49 -49.5 -78.5t-93.5 -29.5z" />
    <glyph glyph-name="uni0123" unicode="&#x123;" horiz-adv-x="554" 
d="M-5 -78l90 25q6 -28 34.5 -47t73.5 -17q69 3 100.5 38.5t47.5 101.5l13 57q-23 -30 -58.5 -46.5t-73 -18t-74.5 14t-64.5 44t-42 76.5t-8.5 108q8 72 36 125t66 79.5t82.5 37.5t85 3t74 -30t48.5 -55l40 78h62q-71 -337 -95 -449q-18 -82 -32 -114q-58 -123 -221 -123
q-64 0 -115 30t-69 82zM242 89q59 -2 99.5 44.5t53.5 122.5q14 82 -22.5 129t-97.5 47q-62 0 -102.5 -46.5t-50.5 -129.5q-10 -75 24 -120t96 -47zM419 772l25 -36q-30 3 -61.5 -13t-40.5 -55q-8 -44 30 -62l-59 -29q-48 30 -37 87q9 49 49.5 78.5t93.5 29.5z" />
    <glyph glyph-name="Hbar" unicode="&#x126;" horiz-adv-x="710" 
d="M119 0h-96l107 504h-75l17 79h75l18 85h96l-18 -85h350l18 85h96l-18 -85h73l-17 -79h-73l-107 -504h-96l64 304h-349zM576 504h-350l-25 -120h350z" />
    <glyph glyph-name="hbar" unicode="&#x127;" horiz-adv-x="582" 
d="M172 615l11 53h86l-11 -53h160l-14 -67h-160l-26 -121q59 77 171 77q81 0 114.5 -54t10.5 -162l-62 -288h-85l59 280q17 85 0.5 117.5t-74.5 32.5q-60 0 -106 -41t-65 -132l-54 -257h-86l116 548h-82l14 67h83z" />
    <glyph glyph-name="Imacron" unicode="&#x12a;" horiz-adv-x="414" 
d="M285 0h-281l16 75h93l110 518h-93l16 75h281l-15 -75h-94l-109 -518h92zM444 762h-276l15 67h276z" />
    <glyph glyph-name="imacron" unicode="&#x12b;" horiz-adv-x="278" 
d="M54 1l91 428h-80l14 68h166l-105 -496h-86zM82 601l14 67h276l-14 -67h-276z" />
    <glyph glyph-name="Iogonek" unicode="&#x12e;" horiz-adv-x="414" 
d="M129 0h-125l16 75h93l110 518h-93l16 75h281l-15 -75h-94l-109 -518h92l-16 -75h-77q-49 -18 -78.5 -41t-29.5 -48q0 -12 11.5 -19.5t29.5 -7.5q20 0 44 9l-11 -54q-39 -12 -67 -12q-40 0 -62 19t-22 48q0 34 29 63t77 43z" />
    <glyph glyph-name="iogonek" unicode="&#x12f;" horiz-adv-x="270" 
d="M-54 -106q0 34 29 63t78 43h-7l91 428h-80l14 68h166l-105 -496q-49 -18 -78.5 -41t-29.5 -48q0 -12 11.5 -19.5t29.5 -7.5q20 0 44 9l-11 -54q-39 -12 -68 -12q-40 0 -62 19t-22 48zM229 591q-25 0 -43.5 18.5t-18.5 43.5q0 26 18 44.5t44 18.5t44.5 -18.5t18.5 -44.5
t-18.5 -44t-44.5 -18z" />
    <glyph glyph-name="dotlessi" unicode="&#x131;" horiz-adv-x="270" 
d="M46 0l91 428h-80l14 68h166l-105 -496h-86z" />
    <glyph glyph-name="uni0136" unicode="&#x136;" horiz-adv-x="623" 
d="M14 0l142 668h96l-69 -323l357 323h130l-319 -283l200 -385h-105l-165 324l-126 -114l-45 -210h-96zM136 -251l-25 36q29 -3 61 13t40 55q5 20 -3.5 37t-26.5 25l60 29q48 -30 37 -87q-9 -49 -49.5 -78.5t-93.5 -29.5z" />
    <glyph glyph-name="uni0137" unicode="&#x137;" horiz-adv-x="488" 
d="M8 0l142 668h86l-82 -383l235 211h112l-234 -207l149 -289h-94l-119 232l-74 -66l-35 -166h-86zM73 -251l-25 36q29 -3 61 13t40 55q5 20 -3.5 37t-26.5 25l59 29q49 -30 38 -87q-9 -49 -49.5 -78.5t-93.5 -29.5z" />
    <glyph glyph-name="uni013B" unicode="&#x13b;" horiz-adv-x="541" 
d="M14 0l142 668h96l-125 -587h359l-17 -81h-455zM121 -252l-26 36q30 -3 61.5 13t40.5 55q4 20 -4 37t-26 25l59 29q47 -29 38 -87q-9 -49 -49.5 -78.5t-93.5 -29.5z" />
    <glyph glyph-name="uni013C" unicode="&#x13c;" horiz-adv-x="260" 
d="M199 75l-16 -75h-56q-73 0 -89.5 28t-2.5 97l115 543h86l-112 -528q-9 -34 -2.5 -49.5t40.5 -15.5h37zM-26 -251l-25 36q29 -3 61 13t40 55q4 19 -4 36.5t-25 25.5l59 29q48 -30 37 -87q-9 -49 -49.5 -78.5t-93.5 -29.5z" />
    <glyph glyph-name="Lcaron" unicode="&#x13d;" horiz-adv-x="541" 
d="M14 0l142 668h96l-125 -587h359l-17 -81h-455zM323 496h-49q0 1 13.5 37.5t27 71t18.5 45.5q4 10 15 19.5t27 9.5q19 0 27.5 -13.5t-0.5 -35.5z" />
    <glyph glyph-name="lcaron" unicode="&#x13e;" horiz-adv-x="264" 
d="M199 75l-16 -75h-56q-73 0 -89.5 28t-2.5 97l115 543h86l-112 -528q-9 -34 -2.5 -49.5t40.5 -15.5h37zM290 496h-49q0 1 13.5 37.5t27 71t18.5 45.5q4 10 15 19.5t27 9.5q19 0 27.5 -13.5t-0.5 -35.5z" />
    <glyph glyph-name="Lslash" unicode="&#x141;" horiz-adv-x="573" 
d="M46 0l57 266l-99 -52l15 73l99 52l70 329h96l-57 -272l201 108l-15 -73l-202 -107l-52 -242h359l-17 -82h-455z" />
    <glyph glyph-name="lslash" unicode="&#x142;" horiz-adv-x="272" 
d="M78 272l-76 -40l15 71l76 39l69 326h86l-59 -275l101 54l-15 -71l-101 -53l-39 -183q-9 -34 -2.5 -49.5t40.5 -15.5h38l-16 -75h-56q-74 0 -90.5 28t-2.5 97z" />
    <glyph glyph-name="Nacute" unicode="&#x143;" 
d="M110 0h-96l142 668h137l186 -574l122 574h96l-142 -668h-137l-185 576zM491 745h-81q2 2 33.5 28t63 51.5t39.5 31.5q14 9 26 9q15 0 25.5 -10.5t10.5 -25.5q0 -21 -19 -34q-6 -4 -98 -50z" />
    <glyph glyph-name="nacute" unicode="&#x144;" horiz-adv-x="550" 
d="M94 0h-86l105 496h64l6 -69q59 77 173 77q81 0 114.5 -54.5t10.5 -162.5l-62 -287h-85l59 279q17 85 0.5 118t-74.5 33q-60 0 -105.5 -41t-65.5 -132zM296 572q101 109 121 126q11 9 25 9q17 0 29 -12q10 -12 9 -28t-12 -26l-98 -69h-74z" />
    <glyph glyph-name="uni0145" unicode="&#x145;" 
d="M14 0l142 668h137l186 -574l122 574h96l-142 -668h-137l-185 576l-123 -576h-96zM181 -251l-26 36q30 -3 61.5 13t40.5 55q4 20 -4 37t-26 25l59 29q47 -29 38 -87q-9 -49 -49.5 -78.5t-93.5 -29.5z" />
    <glyph glyph-name="uni0146" unicode="&#x146;" horiz-adv-x="550" 
d="M8 0l105 496h64l6 -69q59 77 173 77q81 0 114.5 -54.5t10.5 -162.5l-62 -287h-85l59 279q17 85 0.5 118t-74.5 33q-60 0 -105.5 -41t-65.5 -132l-54 -257h-86zM109 -251l-26 36q30 -3 61.5 13t40.5 55q4 20 -4 37t-26 25l59 29q47 -29 38 -87q-9 -49 -49.5 -78.5
t-93.5 -29.5z" />
    <glyph glyph-name="Ncaron" unicode="&#x147;" 
d="M110 0h-96l142 668h137l186 -574l122 574h96l-142 -668h-137l-185 576zM307 861h91l54 -61l81 61h97l-133 -101q-25 -19 -53 -19q-30 0 -46 19z" />
    <glyph glyph-name="ncaron" unicode="&#x148;" horiz-adv-x="550" 
d="M94 0h-86l105 496h64l6 -69q59 77 173 77q81 0 114.5 -54.5t10.5 -162.5l-62 -287h-85l59 279q17 85 0.5 118t-74.5 33q-60 0 -105.5 -41t-65.5 -132zM198 689h91l54 -61l81 61h97l-133 -101q-25 -19 -53 -19q-30 0 -46 19z" />
    <glyph glyph-name="Ohungarumlaut" unicode="&#x150;" horiz-adv-x="728" 
d="M312 -12q-136 0 -205 99t-47 248q23 155 121.5 250t251.5 95q137 0 207 -100.5t46 -244.5q-11 -68 -38.5 -128t-72 -110t-112.5 -79.5t-151 -29.5zM156 335q-21 -125 29 -196.5t140 -71.5q102 0 173 71.5t92 196.5q21 122 -30 193.5t-140 71.5q-108 0 -176 -73.5
t-88 -191.5zM501 744q100 110 121 127q12 9 26 9q18 0 27 -12q10 -12 9.5 -28t-12.5 -26q-9 -8 -33.5 -25.5t-44.5 -30.5l-20 -14h-73zM429 744h-74q102 109 121 127q12 9 26 9q18 0 28 -12t9 -27.5t-12 -26.5q-9 -8 -33.5 -25.5t-44.5 -30.5z" />
    <glyph glyph-name="ohungarumlaut" unicode="&#x151;" horiz-adv-x="547" 
d="M230 -12q-110 0 -163 72t-37 187q9 66 36.5 117t66.5 81t82 44.5t88 14.5q96 0 156 -69t38 -198q-7 -39 -24.5 -79t-48 -80t-81.5 -65t-113 -25zM119 247q-15 -83 16.5 -134t101.5 -51q67 0 112 50t59 135q29 183 -118 183q-139 0 -171 -183zM355 572q100 110 121 127
q12 9 26 9q16 0 27 -12q10 -12 9.5 -28t-12.5 -26q-9 -8 -33.5 -25.5t-44.5 -30.5l-20 -14h-73zM283 572h-74q102 109 121 127q12 9 26 9q18 0 28 -12t9 -27.5t-12 -26.5q-9 -8 -33.5 -25.5t-44.5 -30.5z" />
    <glyph glyph-name="OE" unicode="&#x152;" horiz-adv-x="1076" 
d="M313 -12q-136 0 -205.5 99t-47.5 247q23 156 121 251t252 95q152 0 221 -123l24 111h439l-17 -81h-359l-43 -203h265l-17 -80h-266l-47 -222h360l-17 -82h-440l17 80q-97 -92 -240 -92zM156 334q-21 -124 29.5 -195t140.5 -71q101 0 172 71t92 195q21 123 -30 195
t-140 72q-108 0 -176 -74t-88 -193z" />
    <glyph glyph-name="oe" unicode="&#x153;" horiz-adv-x="910" 
d="M232 -12q-109 0 -164 70.5t-38 188.5q9 66 37 117t67 80.5t81.5 44.5t84.5 15q116 0 167 -98q34 47 88.5 72.5t118.5 25.5q118 0 170 -81t24 -197h-384q-8 -85 29.5 -124.5t102.5 -39.5q79 0 123 49l78 -24q-77 -99 -207 -99q-70 0 -113.5 24.5t-72.5 73.5
q-74 -98 -192 -98zM119 249q-15 -86 16.5 -135.5t97.5 -51.5q68 -1 115.5 50.5t59.5 135.5q25 182 -116 182q-62 0 -109 -42t-64 -139zM664 432q-58 0 -105.5 -37.5t-61.5 -101.5h292q7 56 -24 97.5t-101 41.5z" />
    <glyph glyph-name="Racute" unicode="&#x154;" horiz-adv-x="610" 
d="M14 0l142 668h204q127 0 189.5 -44.5t49.5 -148.5q-8 -72 -61 -124.5t-167 -62.5l147 -288h-105l-143 281h-100l-60 -281h-96zM187 360h124q87 0 135 23.5t56 89.5q8 65 -30 90t-120 25h-117zM435 744h-81q2 2 33.5 28t63 51.5t39.5 31.5q13 9 26 9q15 0 25.5 -10.5
t10.5 -25.5q0 -21 -19 -34q-6 -4 -98 -50z" />
    <glyph glyph-name="racute" unicode="&#x155;" horiz-adv-x="353" 
d="M94 0h-86l105 496h63l8 -93q35 50 79.5 75.5t119.5 25.5l-19 -89q-97 4 -151 -51t-76 -159zM196 571q101 109 121 126q11 9 25 9q17 0 29 -12q10 -12 9 -28t-12 -26l-98 -69h-74z" />
    <glyph glyph-name="Rcaron" unicode="&#x158;" horiz-adv-x="610" 
d="M110 0h-96l142 668h204q127 0 189.5 -44.5t49.5 -148.5q-8 -72 -61 -124.5t-167 -62.5l147 -288h-105l-143 281h-100zM235 588l-48 -228h124q87 0 135 23.5t56 89.5q8 65 -30 90t-120 25h-117zM272 861h91l54 -61l81 61h97l-133 -101q-25 -19 -53 -19q-30 0 -46 19z" />
    <glyph glyph-name="rcaron" unicode="&#x159;" horiz-adv-x="353" 
d="M95 2h-86l105 496h63l8 -93q35 50 79.5 75.5t119.5 25.5l-19 -89q-97 4 -151 -51t-76 -159zM135 689h91l54 -61l81 61h97l-133 -101q-25 -19 -53 -19t-46 19z" />
    <glyph glyph-name="Sacute" unicode="&#x15a;" horiz-adv-x="609" 
d="M544 197q0 -96 -77.5 -152.5t-181.5 -56.5q-85 0 -154 40.5t-95 118.5l91 25q18 -51 64 -78t102 -27q62 0 107.5 31.5t45.5 85.5q0 39 -26.5 64.5t-66.5 37.5t-86.5 27.5t-86.5 33t-66.5 55.5t-26.5 93q0 87 70 136t167 49q77 0 143 -32.5t94 -92.5l-92 -26
q-17 34 -59 53t-90 19q-55 0 -94.5 -25t-43.5 -71q-3 -45 33 -72t90 -42.5t108 -33.5t92.5 -58t38.5 -102zM333 744q2 2 33.5 28t63 51.5t39.5 31.5q13 9 26 9q15 0 25.5 -10.5t10.5 -25.5q0 -21 -19 -34q-6 -4 -98 -50h-81z" />
    <glyph glyph-name="sacute" unicode="&#x15b;" horiz-adv-x="479" 
d="M213 -12q-155 0 -203 125l86 29q8 -42 42 -64t78 -22t76.5 22t32.5 59q0 30 -28.5 48.5t-69 29t-81 24t-69 45t-28.5 81.5q0 66 56.5 102.5t134.5 36.5q65 0 119 -26.5t72 -75.5l-80 -28q-9 29 -43 45t-75 16t-70 -17t-29 -48q0 -30 28.5 -48t70 -28.5t82.5 -24.5
t69.5 -45.5t28.5 -80.5q0 -74 -56.5 -114.5t-143.5 -40.5zM253 570q101 109 121 126q10 9 25 9q17 0 29 -12q10 -12 9 -28t-12 -26l-98 -69h-74z" />
    <glyph glyph-name="Scedilla" unicode="&#x15e;" horiz-adv-x="609" 
d="M252 -11q-75 8 -133.5 48t-82.5 110l91 25q18 -51 64 -78t102 -27q62 0 107.5 31.5t45.5 85.5q0 39 -26.5 64.5t-66.5 37.5t-86.5 27.5t-86.5 33t-66.5 55.5t-26.5 93q0 87 70 136t167 49q77 0 143 -32.5t94 -92.5l-92 -26q-17 34 -59 53t-90 19q-55 0 -94.5 -25
t-43.5 -71q-3 -45 33 -72t90 -42.5t108 -33.5t92.5 -58t38.5 -102q0 -92 -72.5 -148.5t-173.5 -60.5l-27 -33q66 11 85 -29q16 -34 -14 -69q-33 -37 -95 -37q-40 0 -87 17l23 37q31 -14 57 -14q42 0 55 26q10 21 -13 29q-8 3 -19 3q-14 0 -30 -4q-15 -4 -21.5 7t2.5 22z" />
    <glyph glyph-name="scedilla" unicode="&#x15f;" horiz-adv-x="479" 
d="M173 -10q-120 14 -163 123l86 29q8 -42 42 -64t78 -22t76.5 22t32.5 59q0 30 -28.5 48.5t-69 29t-81 24t-69 45t-28.5 81.5q0 66 56.5 102.5t134.5 36.5q65 0 119 -26.5t72 -75.5l-80 -28q-9 29 -43 45t-75 16t-70 -17t-29 -48q0 -30 28.5 -48t70 -28.5t82.5 -24.5
t69.5 -45.5t28.5 -80.5q0 -72 -55 -112.5t-140 -42.5l-27 -33q66 11 85 -29q16 -34 -14 -69q-33 -37 -95 -37q-40 0 -87 17l23 37q31 -14 57 -14q42 0 55 26q10 21 -13 29q-8 3 -19 3q-14 0 -30 -4q-15 -4 -21.5 7t2.5 22z" />
    <glyph glyph-name="Scaron" unicode="&#x160;" horiz-adv-x="609" 
d="M36 147l91 25q18 -51 64 -78t102 -27q62 0 107.5 31.5t45.5 85.5q0 39 -26.5 64.5t-66.5 37.5t-86.5 27.5t-86.5 33t-66.5 55.5t-26.5 93q0 87 70 136t167 49q77 0 143 -32.5t94 -92.5l-92 -26q-17 34 -59 53t-90 19q-55 0 -94.5 -25t-43.5 -71q-3 -45 33 -72t90 -42.5
t108 -33.5t92.5 -58t38.5 -102q0 -96 -77.5 -152.5t-181.5 -56.5q-85 0 -154 40.5t-95 118.5zM328 760l-91 101h91l54 -61l81 61h97l-133 -101q-25 -19 -53 -19q-30 0 -46 19z" />
    <glyph glyph-name="scaron" unicode="&#x161;" horiz-adv-x="479" 
d="M213 -12q-155 0 -203 125l86 29q8 -42 42 -64t78 -22t76.5 22t32.5 59q0 30 -28.5 48.5t-69 29t-81 24t-69 45t-28.5 81.5q0 66 56.5 102.5t134.5 36.5q65 0 119 -26.5t72 -75.5l-80 -28q-9 29 -43 45t-75 16t-70 -17t-29 -48q0 -30 28.5 -48t70 -28.5t82.5 -24.5
t69.5 -45.5t28.5 -80.5q0 -74 -56.5 -114.5t-143.5 -40.5zM240 588l-91 101h91l54 -61l81 61h97l-133 -101q-25 -19 -53 -19q-30 0 -46 19z" />
    <glyph glyph-name="uni0162" unicode="&#x162;" horiz-adv-x="558" 
d="M169 0l124 587h-220l17 81h538l-17 -81h-222l-123 -587h-97zM110 -251l-25 36q29 -3 61 13t40 55q5 20 -3.5 37t-26.5 25l60 29q48 -30 37 -87q-9 -49 -49.5 -78.5t-93.5 -29.5z" />
    <glyph glyph-name="uni0163" unicode="&#x163;" horiz-adv-x="324" 
d="M239 76l-16 -75h-62q-74 0 -91 28t-2 97l65 303h-83l14 68h83l27 124h86l-27 -124h95l-14 -68h-95l-62 -288q-10 -35 -3 -50t41 -15h44zM-8 -251l-25 36q29 -3 61 13t40 55q4 19 -4 36.5t-25 25.5l59 29q48 -30 37 -87q-9 -49 -49.5 -78.5t-93.5 -29.5z" />
    <glyph glyph-name="Tcaron" unicode="&#x164;" horiz-adv-x="558" 
d="M293 587h-220l17 81h538l-17 -81h-222l-123 -587h-97zM327 753l-91 101h91l54 -61l81 61h97l-133 -101q-25 -19 -53 -19q-30 0 -46 19z" />
    <glyph glyph-name="tcaron" unicode="&#x165;" horiz-adv-x="322" 
d="M238 75l-16 -75h-62q-74 0 -91 28t-2 97l65 303h-83l14 68h83l27 124h86l-27 -124h95l-14 -68h-95l-62 -288q-10 -35 -3 -50t41 -15h44zM340 545h-49q0 1 13.5 37.5t27 71t18.5 45.5q4 10 15 19.5t27 9.5q19 0 27.5 -13.5t-0.5 -35.5z" />
    <glyph glyph-name="Umacron" unicode="&#x16a;" 
d="M286 -12q-140 0 -192.5 70t-19.5 222l83 388h96l-84 -396q-22 -108 5 -155.5t117 -47.5q95 0 147.5 44.5t77.5 158.5l85 396h96l-83 -388q-16 -77 -44 -133t-58.5 -86t-72.5 -47t-75.5 -21.5t-77.5 -4.5zM582 762h-276l15 67h276z" />
    <glyph glyph-name="umacron" unicode="&#x16b;" horiz-adv-x="540" 
d="M173 -11q-89 0 -116.5 60t-7.5 154l62 293h86l-62 -291q-7 -40 -9 -71.5t17 -51.5t60 -20q131 0 169 174l56 260h85l-105 -496h-65l-6 70q-33 -43 -70.5 -62t-93.5 -19zM471 601h-276l14 67h276z" />
    <glyph glyph-name="Uring" unicode="&#x16e;" 
d="M286 -12q-140 0 -192.5 70t-19.5 222l83 388h96l-84 -396q-22 -108 5 -155.5t117 -47.5q95 0 147.5 44.5t77.5 158.5l85 396h96l-83 -388q-16 -77 -44 -133t-58.5 -86t-72.5 -47t-75.5 -21.5t-77.5 -4.5zM336 777q0 45 32.5 77t78.5 32q45 0 76 -32t31 -77t-31 -77
t-76 -32q-46 0 -78.5 32t-32.5 77zM393 777q0 -21 15 -36t37 -15t37 15t15 36t-15 36t-37 15t-37 -15t-15 -36z" />
    <glyph glyph-name="uring" unicode="&#x16f;" horiz-adv-x="540" 
d="M173 -11q-89 0 -116.5 60t-7.5 154l62 293h86l-62 -291q-7 -40 -9 -71.5t17 -51.5t60 -20q131 0 169 174l56 260h85l-105 -496h-65l-6 70q-33 -43 -70.5 -62t-93.5 -19zM345 559q-46 0 -78.5 32t-32.5 77t32.5 77t78.5 32q45 0 76 -32t31 -77t-31 -77t-76 -32zM291 668
q0 -21 15 -36t37 -15t37 15t15 36t-15 36t-37 15t-37 -15t-15 -36z" />
    <glyph glyph-name="Uhungarumlaut" unicode="&#x170;" 
d="M286 -12q-140 0 -192.5 70t-19.5 222l83 388h96l-84 -396q-22 -108 5 -155.5t117 -47.5q95 0 147.5 44.5t77.5 158.5l85 396h96l-83 -388q-16 -77 -44 -133t-58.5 -86t-72.5 -47t-75.5 -21.5t-77.5 -4.5zM551 744h-73q100 110 121 127q12 9 26 9q18 0 27 -12
q10 -12 9.5 -28t-12.5 -26q-9 -8 -33.5 -25.5t-44.5 -30.5zM332 744q102 109 121 127q12 9 26 9q18 0 28 -12t9 -27.5t-12 -26.5q-9 -8 -33.5 -25.5t-44.5 -30.5l-20 -14h-74z" />
    <glyph glyph-name="uhungarumlaut" unicode="&#x171;" horiz-adv-x="540" 
d="M173 -11q-89 0 -116.5 60t-7.5 154l62 293h86l-62 -291q-7 -40 -9 -71.5t17 -51.5t60 -20q131 0 169 174l56 260h85l-105 -496h-65l-6 70q-33 -43 -70.5 -62t-93.5 -19zM360 572q100 110 121 127q12 9 26 9q17 0 27 -12t9.5 -28t-12.5 -26q-9 -8 -33.5 -25.5t-44.5 -30.5
l-20 -14h-73zM214 572q102 109 121 127q12 9 26 9q17 0 28 -12q10 -12 9 -27.5t-12 -26.5q-9 -8 -33.5 -25.5t-44.5 -30.5l-20 -14h-74z" />
    <glyph glyph-name="Uogonek" unicode="&#x172;" 
d="M254 -11q-122 8 -166.5 78t-13.5 213l83 388h96l-84 -396q-22 -108 5 -155.5t117 -47.5q95 0 147.5 44.5t77.5 158.5l85 396h96l-83 -388q-14 -67 -36.5 -118t-48.5 -82t-59.5 -51t-64 -28t-67.5 -11q-83 -37 -83 -79q0 -12 11.5 -19.5t29.5 -7.5q20 0 44 9l-11 -54
q-39 -12 -67 -12q-40 0 -62 19t-22 48q0 59 76 95z" />
    <glyph glyph-name="uogonek" unicode="&#x173;" horiz-adv-x="540" 
d="M173 -11q-89 0 -116.5 60t-7.5 154l62 293h86l-62 -291q-7 -40 -9 -71.5t17 -51.5t60 -20q131 0 169 174l56 260h85l-105 -496q-49 -18 -78.5 -41t-29.5 -48q0 -12 11.5 -19.5t29.5 -7.5q20 0 44 9l-11 -54q-39 -12 -67 -12q-40 0 -62 19t-22 48q0 74 120 111l-6 65
q-33 -43 -70.5 -62t-93.5 -19z" />
    <glyph glyph-name="Ydieresis" unicode="&#x178;" horiz-adv-x="598" 
d="M229 240l-139 428h96l104 -337l264 337h114l-343 -428l-51 -240h-97zM245 794q0 22 16 37.5t38 15.5t38 -15.5t16 -37.5t-15.5 -38t-38.5 -16t-38.5 16t-15.5 38zM510 740q-22 0 -37.5 16t-15.5 38t15.5 37.5t37.5 15.5t38 -15.5t16 -37.5t-16 -38t-38 -16z" />
    <glyph glyph-name="Zacute" unicode="&#x179;" horiz-adv-x="613" 
d="M506 0h-524l17 81l501 506h-372l17 81h495l-17 -81l-500 -506h401zM415 744h-81q2 2 33.5 28t63 51.5t39.5 31.5q13 9 26 9q15 0 25.5 -10.5t10.5 -25.5q0 -21 -19 -34q-6 -4 -98 -50z" />
    <glyph glyph-name="zacute" unicode="&#x17a;" horiz-adv-x="467" 
d="M375 0h-397l15 73l362 351h-272l16 73h377l-16 -73l-359 -351h289zM328 570h-74q101 109 121 126q11 9 25 9q17 0 29 -12q10 -12 9 -28t-12 -26z" />
    <glyph glyph-name="Zdotaccent" unicode="&#x17b;" horiz-adv-x="613" 
d="M506 0h-524l17 81l501 506h-372l17 81h495l-17 -81l-500 -506h401zM407 742q-23 0 -38.5 16t-15.5 38t15.5 38t38.5 16t38.5 -16t15.5 -38t-15.5 -38t-38.5 -16z" />
    <glyph glyph-name="zdotaccent" unicode="&#x17c;" horiz-adv-x="467" 
d="M-22 0l15 73l362 351h-272l16 73h377l-16 -73l-359 -351h289l-15 -73h-397zM251 644q0 22 15.5 38t38.5 16t38.5 -16t15.5 -38t-15.5 -38t-38.5 -16t-38.5 16t-15.5 38z" />
    <glyph glyph-name="Zcaron" unicode="&#x17d;" horiz-adv-x="613" 
d="M506 0h-524l17 81l501 506h-372l17 81h495l-17 -81l-500 -506h401zM257 861h91l54 -61l81 61h97l-133 -101q-25 -19 -53 -19q-30 0 -46 19z" />
    <glyph glyph-name="zcaron" unicode="&#x17e;" horiz-adv-x="467" 
d="M375 0h-397l15 73l362 351h-272l16 73h377l-16 -73l-359 -351h289zM156 689h91l54 -61l81 61h97l-133 -101q-25 -19 -53 -19q-30 0 -46 19z" />
    <glyph glyph-name="florin" unicode="&#x192;" horiz-adv-x="329" 
d="M-72 -165l16 75q22 -5 34 -5q29 0 42.5 17.5t21.5 53.5l96 452h-84l15 68h84l12 59q19 92 51 121.5t119 29.5h49l-16 -71h-40q-61 0 -75 -65l-16 -74h102l-14 -68h-101l-99 -466q-15 -71 -45 -103t-86 -32q-26 0 -66 8z" />
    <glyph glyph-name="uni0218" unicode="&#x218;" horiz-adv-x="609" 
d="M36 147l91 25q18 -54 71.5 -81.5t108 -24t97 35t42.5 82.5q0 39 -26.5 64.5t-66.5 37.5t-86.5 27.5t-86.5 33t-66.5 55.5t-26.5 93q0 54 29 95t74.5 62t101.5 26.5t108 -6.5t96 -42t65 -75l-92 -26q-18 36 -65 55t-94.5 17.5t-86 -27t-41.5 -69.5q-3 -45 33 -72t90 -42.5
t108 -33.5t92.5 -58t38.5 -102q0 -58 -32 -104.5t-81.5 -71t-110 -31t-116.5 7t-102 52.5t-66 97zM134 -251l-25 36q29 -3 61 13t40 55q5 20 -3.5 37t-26.5 25l60 29q48 -30 37 -87q-9 -49 -49.5 -78.5t-93.5 -29.5z" />
    <glyph glyph-name="uni0219" unicode="&#x219;" horiz-adv-x="479" 
d="M10 113l86 29q7 -34 32.5 -56.5t58 -27t64 1.5t53 27t21.5 50q0 30 -28.5 48.5t-69 29t-81 24t-69 45t-28.5 81.5q0 61 52 98t118 41t129 -22.5t83 -79.5l-80 -28q-13 39 -66.5 54.5t-102 -1t-48.5 -57.5q0 -30 28.5 -48t70 -28.5t82.5 -24.5t69.5 -45.5t28.5 -80.5
q0 -74 -56.5 -114.5t-143.5 -40.5q-155 0 -203 125zM70 -251l-26 36q30 -3 61.5 13t40.5 55q4 20 -4 37t-26 25l59 29q47 -29 38 -87q-9 -49 -49.5 -78.5t-93.5 -29.5z" />
    <glyph glyph-name="uni021A" unicode="&#x21a;" horiz-adv-x="558" 
d="M169 0l124 587h-220l17 81h538l-17 -81h-222l-123 -587h-97zM108 -251l-25 36q29 -3 61 13t40 55q5 20 -3.5 37t-26.5 25l60 29q48 -30 37 -87q-9 -49 -49.5 -78.5t-93.5 -29.5z" />
    <glyph glyph-name="uni021B" unicode="&#x21b;" horiz-adv-x="324" 
d="M238 75l-16 -75h-62q-74 0 -91 28t-2 97l65 303h-83l14 68h83l27 124h86l-27 -124h95l-14 -68h-95l-62 -288q-10 -35 -3 -50t41 -15h44zM-4 -251l-25 36q29 -3 61 13t40 55q5 20 -3.5 37t-26.5 25l60 29q48 -30 37 -87q-9 -49 -49.5 -78.5t-93.5 -29.5z" />
    <glyph glyph-name="circumflex" unicode="&#x2c6;" horiz-adv-x="429" 
d="M209 575h-96l134 101q25 19 54 19q27 0 45 -19l90 -101h-92l-54 61z" />
    <glyph glyph-name="caron" unicode="&#x2c7;" horiz-adv-x="429" 
d="M136 682h91l54 -61l81 61h97l-133 -101q-25 -19 -53 -19q-30 0 -46 19z" />
    <glyph glyph-name="uni02C9" unicode="&#x2c9;" horiz-adv-x="382" 
d="M117 594l14 67h276l-14 -67h-276z" />
    <glyph glyph-name="breve" unicode="&#x2d8;" horiz-adv-x="400" 
d="M361 682h69q-20 -50 -62.5 -85t-102.5 -35t-94.5 37t-34.5 83h69q10 -53 67 -53q56 0 89 53z" />
    <glyph glyph-name="dotaccent" unicode="&#x2d9;" horiz-adv-x="216" 
d="M128 637q0 23 16 38.5t38 15.5t38 -15.5t16 -38.5t-16 -38.5t-38 -15.5t-38 15.5t-16 38.5z" />
    <glyph glyph-name="ring" unicode="&#x2da;" horiz-adv-x="329" 
d="M245 552q-46 0 -78.5 32t-32.5 77t32.5 77t78.5 32q45 0 76 -32t31 -77t-31 -77t-76 -32zM191 661q0 -21 15 -36t37 -15t37 15t15 36t-15 36t-37 15t-37 -15t-15 -36z" />
    <glyph glyph-name="ogonek" unicode="&#x2db;" horiz-adv-x="270" 
d="M121 -161q-39 -12 -67 -12q-40 0 -62 19t-22 48q0 34 29 63t77 43h79q-49 -18 -78.5 -41t-29.5 -48q0 -12 11.5 -19.5t29.5 -7.5q20 0 44 9z" />
    <glyph glyph-name="tilde" unicode="&#x2dc;" horiz-adv-x="420" 
d="M155 577h-65q39 103 128 103q36 0 73.5 -21t54.5 -21q5 0 9 1t7.5 2t7.5 3t6 3.5t6 5t5 4.5l5 5l5 5q13 13 27 13q18 0 26.5 -16t-1.5 -32q-36 -57 -103 -57q-30 0 -67 21t-62 21q-44 0 -62 -40z" />
    <glyph glyph-name="hungarumlaut" unicode="&#x2dd;" horiz-adv-x="394" 
d="M249 572q100 110 121 127q12 9 26 9q16 0 27 -12q10 -12 9.5 -28t-12.5 -26q-9 -8 -33.5 -25.5t-44.5 -30.5l-20 -14h-73zM103 572q102 109 121 127q12 9 26 9q18 0 28 -12t9 -27.5t-12 -26.5q-9 -8 -33.5 -25.5t-44.5 -30.5l-20 -14h-74z" />
    <glyph glyph-name="uni0326" unicode="&#x326;" horiz-adv-x="280" 
d="M-24 -251l-25 36q29 -3 61 13t40 55q5 20 -3.5 37t-26.5 25l60 29q48 -30 37 -87q-9 -49 -49.5 -78.5t-93.5 -29.5z" />
    <glyph glyph-name="uni0394" unicode="&#x394;" horiz-adv-x="759" 
d="M-9 0l326 680l327 -680h-653zM116 78h402l-201 420z" />
    <glyph glyph-name="uni03A9" unicode="&#x3a9;" horiz-adv-x="776" 
d="M228 130q-69 38 -110 106t-41 149q0 122 86 208.5t207 86.5q122 0 208 -86.5t86 -208.5q0 -81 -41 -149t-110 -106v-49h151v-81h-236v173q71 19 117 78t46 134q0 91 -64.5 156t-156.5 65q-91 0 -155.5 -65t-64.5 -156q0 -75 46 -134t117 -78v-173h-236v81h151v49z" />
    <glyph glyph-name="uni03BC" unicode="&#x3bc;" horiz-adv-x="544" 
d="M-26 -162l140 657h88l-64 -299q-13 -64 -0.5 -95.5t52.5 -39.5q22 -4 34 -4q114 0 152 178l55 260h86l-106 -495h-65l-5 68q-29 -41 -61.5 -60.5t-84.5 -19.5q-29 0 -53.5 14.5t-36.5 41.5l-43 -206h-88z" />
    <glyph glyph-name="pi" unicode="&#x3c0;" horiz-adv-x="591" 
d="M124 0h-83l88 416h-83l17 80h531l-18 -80h-84l-58 -276q-10 -34 -4.5 -49.5t42.5 -15.5h32l-16 -75h-51q-71 0 -88.5 27.5t-3.5 97.5l61 291h-194z" />
    <glyph glyph-name="endash" unicode="&#x2013;" horiz-adv-x="497" 
d="M40 208v79h398v-79h-398z" />
    <glyph glyph-name="emdash" unicode="&#x2014;" horiz-adv-x="817" 
d="M40 208v79h718v-79h-718z" />
    <glyph glyph-name="quoteleft" unicode="&#x2018;" horiz-adv-x="238" 
d="M148 419q-33 5 -47 36.5t4 61.5l91 151h61l-76 -125q23 -8 34.5 -28t7.5 -44q-5 -26 -26.5 -41.5t-48.5 -10.5z" />
    <glyph glyph-name="quoteright" unicode="&#x2019;" horiz-adv-x="238" 
d="M152 429h-61l75 126q-22 8 -34 28t-8 44q5 26 27 41t48 11q34 -6 48 -37t-5 -61z" />
    <glyph glyph-name="quotesinglbase" unicode="&#x201a;" horiz-adv-x="239" 
d="M33 -133h-61l75 125q-22 8 -34 28.5t-8 43.5q5 26 27 41.5t48 11.5q34 -6 48 -37.5t-5 -61.5z" />
    <glyph glyph-name="quotedblleft" unicode="&#x201c;" horiz-adv-x="395" 
d="M148 419q-33 5 -47 36.5t4 61.5l91 151h61l-76 -125q23 -8 34.5 -28t7.5 -44q-5 -26 -26.5 -41.5t-48.5 -10.5zM305 419q-33 5 -47.5 36.5t4.5 61.5l90 151h60l-74 -125q22 -8 34 -28.5t8 -43.5q-5 -26 -27 -41.5t-48 -10.5z" />
    <glyph glyph-name="quotedblright" unicode="&#x201d;" horiz-adv-x="394" 
d="M152 429h-61l75 126q-22 8 -34 28t-8 44q5 26 27 41t48 11q34 -6 48 -37t-5 -61zM247 429l75 126q-22 7 -33.5 27.5t-7.5 44.5q5 26 26.5 41.5t47.5 10.5q33 -6 47 -37t-4 -61l-90 -152h-61z" />
    <glyph glyph-name="quotedblbase" unicode="&#x201e;" horiz-adv-x="394" 
d="M33 -133h-61l75 125q-22 8 -34 28.5t-8 43.5q5 26 27 41.5t48 11.5q34 -6 48 -37.5t-5 -61.5zM128 -133l75 125q-22 8 -33.5 28.5t-7.5 43.5q5 27 26.5 42.5t47.5 10.5q33 -6 47 -37.5t-4 -61.5l-90 -151h-61z" />
    <glyph glyph-name="dagger" unicode="&#x2020;" horiz-adv-x="541" 
d="M257 417h-190l17 79h190l37 172h80l-36 -172h189l-17 -79h-189l-88 -417h-82z" />
    <glyph glyph-name="daggerdbl" unicode="&#x2021;" horiz-adv-x="541" 
d="M15 173l17 79h190l35 165h-190l17 79h190l37 172h80l-37 -172h190l-17 -79h-190l-34 -165h189l-17 -79h-189l-36 -173h-82l37 173h-190z" />
    <glyph glyph-name="bullet" unicode="&#x2022;" horiz-adv-x="446" 
d="M49 254q0 69 48.5 117.5t117.5 48.5t117.5 -48.5t48.5 -117.5q0 -68 -48.5 -117t-117.5 -49t-117.5 49t-48.5 117z" />
    <glyph glyph-name="ellipsis" unicode="&#x2026;" horiz-adv-x="699" 
d="M235 52q0 27 18.5 46t45.5 19t46 -19t19 -46q0 -26 -19 -45t-46 -19t-45.5 19t-18.5 45zM465 52q0 27 19 46t46 19q26 0 45 -19t19 -46q0 -26 -19 -45t-45 -19q-27 0 -46 19t-19 45zM68 -12q-26 0 -45 19t-19 45q0 27 19 46t45 19q27 0 46 -19t19 -46q0 -26 -19 -45
t-46 -19z" />
    <glyph glyph-name="perthousand" unicode="&#x2030;" horiz-adv-x="1407" 
d="M268 316q-76 0 -129 53.5t-53 128.5t53 128.5t129 53.5q75 0 128 -53.5t53 -128.5t-53 -128.5t-128 -53.5zM574 169q0 76 53 129t129 53q75 0 128 -53t53 -129q0 -75 -53 -128t-128 -53q-76 0 -129 53t-53 128zM975 169q0 76 53 129t129 53q75 0 128 -53t53 -129
q0 -75 -53 -128t-128 -53q-76 0 -129 53t-53 128zM322 0h-88l468 668h88zM1157 277q-45 0 -76.5 -31.5t-31.5 -76.5q0 -44 31.5 -75.5t76.5 -31.5q44 0 75.5 31.5t31.5 75.5q0 45 -31.5 76.5t-75.5 31.5zM756 277q-45 0 -76.5 -31.5t-31.5 -76.5q0 -44 31.5 -75.5
t76.5 -31.5q44 0 75.5 31.5t31.5 75.5q0 45 -31.5 76.5t-75.5 31.5zM268 605q-44 0 -76 -31.5t-32 -75.5t32 -75.5t76 -31.5t75.5 31.5t31.5 75.5t-31.5 75.5t-75.5 31.5z" />
    <glyph glyph-name="guilsinglleft" unicode="&#x2039;" horiz-adv-x="355" 
d="M148 40l-103 210l172 211h104l-181 -221l97 -200h-89z" />
    <glyph glyph-name="guilsinglright" unicode="&#x203a;" horiz-adv-x="347" 
d="M9 40l181 221l-97 200h89l103 -210l-172 -211h-104z" />
    <glyph glyph-name="fraction" unicode="&#x2044;" horiz-adv-x="444" 
d="M-47 0l468 668h88l-468 -668h-88z" />
    <glyph glyph-name="Euro" unicode="&#x20ac;" horiz-adv-x="701" 
d="M4 240l39 51h73q3 42 13 85h-96l39 51h72q40 116 124 184t198 68q84 0 142 -38t80 -113l-85 -29q-16 49 -54 75t-93 26q-71 0 -128.5 -45.5t-89.5 -127.5h236l-39 -51h-214q-11 -44 -14 -85h163l-38 -51h-124q8 -79 52.5 -126t114.5 -47q61 0 103.5 24t77.5 78l75 -30
q-91 -151 -267 -151q-120 0 -181 71.5t-67 180.5h-112z" />
    <glyph glyph-name="uni2113" unicode="&#x2113;" horiz-adv-x="451" 
d="M98 188l-78 -50l19 89l78 51l49 228q19 89 55.5 131t109.5 42q57 0 89 -33.5t26 -98.5q-8 -86 -69 -153.5t-179 -142.5l-21 -100q-10 -51 3 -70.5t45 -19.5q45 0 96 39l24 -58q-65 -54 -146 -54q-76 0 -101.5 39.5t-6.5 128.5zM218 343q115 71 145 193q18 73 -37 73
q-29 0 -44.5 -19.5t-26.5 -72.5z" />
    <glyph glyph-name="trademark" unicode="&#x2122;" horiz-adv-x="928" 
d="M473 668h108l93 -284l93 284h108v-376h-67v279l-98 -279h-72l-98 279v-279h-67v376zM133 608v60h303v-60h-118v-316h-67v316h-118z" />
    <glyph glyph-name="estimated" unicode="&#x212e;" horiz-adv-x="628" 
d="M308 -12q-47 0 -92 17.5t-82.5 50t-60.5 84.5t-23 116q0 94 74 171t184 77q106 0 181.5 -75t76.5 -181h-410v-170q64 -58 152 -58q103 0 170 77l33 -10q-78 -99 -203 -99zM308 472q-88 0 -152 -59v-134h304v134q-64 59 -152 59z" />
    <glyph glyph-name="partialdiff" unicode="&#x2202;" horiz-adv-x="595" 
d="M51 246q0 126 71 192t167 66q36 0 73 -13t59 -41q-15 46 -41.5 77t-65 46.5t-79.5 20.5t-95 4v82q127 0 196 -28q192 -76 192 -375q0 -60 -13 -110.5t-40.5 -91.5t-75 -64t-110.5 -23q-96 0 -167 66t-71 192zM289 430q-60 0 -104.5 -47t-44.5 -137t44.5 -137.5
t104.5 -47.5t104 47.5t44 137.5t-44 137t-104 47z" />
    <glyph glyph-name="product" unicode="&#x220f;" horiz-adv-x="761" 
d="M133 668h479v-829h-82v748h-316v-748h-81v829z" />
    <glyph glyph-name="summation" unicode="&#x2211;" horiz-adv-x="763" 
d="M123 668h481v-81h-380l245 -333l-245 -334h380v-81h-481v81l246 334l-246 333v81z" />
    <glyph glyph-name="minus" unicode="&#x2212;" horiz-adv-x="619" 
d="M42 209v79h496v-79h-496z" />
    <glyph glyph-name="uni2215" unicode="&#x2215;" horiz-adv-x="444" 
d="M-47 0l468 668h88l-468 -668h-88z" />
    <glyph glyph-name="uni2219" unicode="&#x2219;" horiz-adv-x="237" 
d="M46 255q0 27 19 46t46 19q26 0 45 -19t19 -45t-19 -45.5t-45 -19.5q-29 0 -47 19.5t-18 44.5z" />
    <glyph glyph-name="radical" unicode="&#x221a;" horiz-adv-x="513" 
d="M265 -161l-120 306h-106v80h162l103 -262l123 706h88l-151 -830h-99z" />
    <glyph glyph-name="infinity" unicode="&#x221e;" horiz-adv-x="780" 
d="M49 256q0 66 46 108t120 42q87 0 168 -89q80 89 167 89q74 0 120 -42t46 -108q0 -67 -44.5 -109.5t-115.5 -42.5q-88 0 -173 94q-86 -94 -174 -94q-71 0 -115.5 42.5t-44.5 109.5zM130 256q0 -32 23.5 -54t59.5 -22q32 0 60 17t62 59q-31 37 -58 55.5t-61 18.5
q-37 0 -61.5 -20.5t-24.5 -53.5zM431 256q34 -42 61.5 -59t59.5 -17q36 0 59.5 22t23.5 54q0 33 -24.5 53.5t-61.5 20.5q-33 0 -60 -18.5t-58 -55.5z" />
    <glyph glyph-name="integral" unicode="&#x222b;" horiz-adv-x="306" 
d="M-31 -111q0 20 14.5 35t35.5 15t35 -15t14 -36q0 -10 -2 -15h4t8.5 5t11.5 13.5t9 29t4 48.5v495q0 217 133 217q85 0 85 -62q0 -21 -14.5 -35.5t-35.5 -14.5t-35.5 15t-14.5 35q0 9 3 16h-4t-8.5 -5t-11.5 -13.5t-9 -29t-4 -49.5v-494q0 -217 -133 -217q-85 0 -85 62z
" />
    <glyph glyph-name="approxequal" unicode="&#x2248;" horiz-adv-x="605" 
d="M57 309q12 47 48.5 74.5t90.5 27.5q45 0 111.5 -27.5t88.5 -27.5q23 0 40 13.5t22 37.5l74 -22q-11 -47 -47.5 -74.5t-88.5 -27.5q-38 0 -105 27t-95 27q-55 0 -64 -50zM57 123q11 47 47.5 74.5t89.5 27.5q45 0 111.5 -27.5t89.5 -27.5q24 0 41 13t22 38l74 -22
q-11 -47 -47.5 -74.5t-88.5 -27.5q-38 0 -105 27t-95 27q-55 0 -64 -50z" />
    <glyph glyph-name="notequal" unicode="&#x2260;" horiz-adv-x="658" 
d="M312 307h-239v80h295l77 109h99l-76 -109h101v-80h-157l-75 -107h232v-79h-287l-85 -121h-100l85 121h-109v79h165z" />
    <glyph glyph-name="lessequal" unicode="&#x2264;" horiz-adv-x="651" 
d="M63 337l473 168v-91l-368 -112l368 -112v-90l-473 167v70zM536 0h-473v80h473v-80z" />
    <glyph glyph-name="greaterequal" unicode="&#x2265;" horiz-adv-x="686" 
d="M466 302l-368 112v91l473 -168v-70l-473 -167v90zM98 0v80h473v-80h-473z" />
    <glyph glyph-name="lozenge" unicode="&#x25ca;" horiz-adv-x="561" 
d="M286 -73l-228 388l228 388l227 -388zM286 76l140 239l-140 239l-141 -239z" />
    <glyph glyph-name="NULL" horiz-adv-x="0" 
 />
    <glyph glyph-name="grave.case" horiz-adv-x="278" 
d="M248 744q-51 37 -65.5 51.5t-14.5 32.5q0 12 9 24t27 12q21 0 33 -17l84 -103h-73z" />
    <glyph glyph-name="acute.case" horiz-adv-x="287" 
d="M230 744h-81q2 2 33.5 28t63 51.5t39.5 31.5q13 9 26 9q15 0 25.5 -10.5t10.5 -25.5q0 -21 -19 -34q-6 -4 -98 -50z" />
    <glyph glyph-name="circumflex.case" horiz-adv-x="429" 
d="M150 747l133 101q25 19 54 19t45 -19l91 -101h-92l-55 61l-80 -61h-96z" />
    <glyph glyph-name="dieresis.case" horiz-adv-x="427" 
d="M161 794q0 22 16 37.5t38 15.5t38 -15.5t16 -37.5t-15.5 -38t-38.5 -16t-38.5 16t-15.5 38zM373 794q0 22 15.5 37.5t37.5 15.5t38 -15.5t16 -37.5t-16 -38t-38 -16t-37.5 16t-15.5 38z" />
    <glyph glyph-name="caron.case" horiz-adv-x="429" 
d="M173 854h91l54 -61l81 61h97l-133 -101q-25 -19 -53 -19q-30 0 -46 19z" />
    <glyph glyph-name="ring.case" horiz-adv-x="329" 
d="M258 613q-46 0 -78.5 32t-32.5 77t32.5 77t78.5 32q45 0 76 -32t31 -77t-31 -77t-76 -32zM204 722q0 -21 15 -36t37 -15t37 15t15 36t-15 36t-37 15t-37 -15t-15 -36z" />
    <glyph glyph-name="macron.case" horiz-adv-x="380" 
d="M152 762l15 67h276l-15 -67h-276z" />
    <glyph glyph-name="breve.case" horiz-adv-x="400" 
d="M398 854h69q-20 -50 -62.5 -85t-102.5 -35t-94.5 37t-34.5 83h69q10 -53 67 -53q56 0 89 53z" />
    <glyph glyph-name="dotaccent.case" horiz-adv-x="216" 
d="M164 809q0 23 16 38.5t38 15.5t38 -15.5t16 -38.5t-16 -38.5t-38 -15.5t-38 15.5t-16 38.5z" />
    <glyph glyph-name="tilde.case" horiz-adv-x="456" 
d="M215 749h-65q39 103 128 103q36 0 73.5 -21t54.5 -21q5 0 9 1t7.5 2t7.5 3t6 3.5t6 5t5 4.5l5 5l5 5q13 13 27 13q18 0 26.5 -16t-1.5 -32q-36 -57 -103 -57q-30 0 -67 21t-62 21q-44 0 -62 -40z" />
    <glyph glyph-name="hungarumlaut.case" horiz-adv-x="415" 
d="M295 744q100 110 121 127q12 9 26 9q18 0 27 -12q10 -12 9.5 -28t-12.5 -26q-9 -8 -33.5 -25.5t-44.5 -30.5l-20 -14h-73zM149 744q102 109 121 127q12 9 26 9q18 0 28 -12t9 -27.5t-12 -26.5q-9 -8 -33.5 -25.5t-44.5 -30.5l-20 -14h-74z" />
    <glyph glyph-name="zero.tf" horiz-adv-x="639" 
d="M289 -12q-128 0 -185 89.5t-36 256.5t99.5 256.5t206.5 89.5q129 0 186 -89.5t36 -256.5t-100 -256.5t-207 -89.5zM159 334q-8 -51 -4.5 -100t16.5 -87t45.5 -61t81.5 -23q62 0 106 35l-197 405q-36 -64 -48 -169zM365 605q-57 0 -99 -31l195 -402q32 66 44 162
q5 38 5.5 71.5t-6 71.5t-21.5 65t-45 45t-73 18z" />
    <glyph glyph-name="one.tf" horiz-adv-x="639" 
d="M37 8l16 77h179l90 428h-178l15 67q100 0 151 24.5t74 72.5h58l-125 -592h158l-16 -77h-422z" />
    <glyph glyph-name="two.tf" horiz-adv-x="639" 
d="M17 0l16 76q213 119 323 211.5t130 177.5q16 66 -19 105.5t-91 39.5q-120 0 -167 -112l-78 24q71 158 248 158q101 0 160.5 -56t38.5 -163q-10 -53 -47 -105t-97.5 -101t-123 -90.5t-144.5 -87.5h348l-16 -77h-481z" />
    <glyph glyph-name="three.tf" horiz-adv-x="639" 
d="M74 158l86 23q8 -57 44.5 -90t98.5 -33q64 0 109.5 36t45.5 93q0 30 -9 52.5t-26.5 36t-35 22t-44 12t-44 4.5t-43.5 1l16 75q47 0 78.5 3.5t65.5 13.5t52.5 34t19.5 60q2 52 -35 80.5t-93 28.5q-113 0 -149 -112l-78 25q22 72 82.5 114.5t149.5 42.5q88 0 151.5 -39
t63.5 -121q0 -65 -36 -109t-99 -64q102 -34 102 -149q0 -86 -64.5 -148t-181.5 -62q-97 0 -155.5 47t-71.5 123z" />
    <glyph glyph-name="four.tf" horiz-adv-x="639" 
d="M24 165l17 79l428 424h87l-90 -424h124l-17 -79h-124l-35 -165h-87l36 165h-339zM445 552l-311 -308h245z" />
    <glyph glyph-name="five.tf" horiz-adv-x="639" 
d="M57 154l83 23q30 -112 134 -117q72 -2 117 41.5t50 118.5t-28.5 114.5t-95.5 42.5q-50 3 -87.5 -18t-56.5 -54l-78 24l113 339h385l-18 -81h-314l-63 -187q54 50 135 50q89 0 150 -64t48 -173q-9 -79 -50.5 -132.5t-95.5 -74.5t-115 -18q-89 4 -142.5 48.5t-70.5 117.5z
" />
    <glyph glyph-name="six.tf" horiz-adv-x="639" 
d="M302 -12q-125 0 -178.5 86t-35.5 237q9 74 31.5 138.5t59 117t92 83t122.5 30.5q71 0 117 -29.5t64 -77.5l-88 -25q-24 62 -102 62q-75 0 -126.5 -66t-72.5 -183q57 84 172 84q93 0 148.5 -63.5t48.5 -162.5t-73.5 -165t-178.5 -66zM173 227q-8 -70 29.5 -119.5
t102.5 -49.5q66 0 110 44t49 113q5 70 -31 112.5t-102 42.5q-65 0 -108 -39t-50 -104z" />
    <glyph glyph-name="seven.tf" horiz-adv-x="639" 
d="M105 0l414 587h-367l18 81h471l-17 -81l-411 -587h-108z" />
    <glyph glyph-name="eight.tf" horiz-adv-x="639" 
d="M278 -12q-108 0 -172 53.5t-55 146.5q7 63 44.5 109t97.5 68q-51 52 -43 133q8 75 66.5 128.5t133.5 53.5t122.5 -53.5t39.5 -128.5q-8 -79 -71 -133q55 -22 83 -68t21 -109q-9 -93 -84 -146.5t-183 -53.5zM142 188q-6 -58 33 -91.5t111 -33.5q71 0 117 33.5t52 91.5
q6 59 -33 94t-111 35q-71 0 -117 -35t-52 -94zM224 498q-5 -44 23 -75.5t72 -31.5t79.5 31.5t39.5 75.5q4 45 -24 76t-73 31q-44 0 -78.5 -31t-38.5 -76z" />
    <glyph glyph-name="nine.tf" horiz-adv-x="639" 
d="M356 211q-62 -7 -112.5 11t-80 53.5t-42.5 81t-5 97.5t36 100q35 60 98 93t130 33q59 0 105 -25q49 -27 79.5 -76t29.5 -115.5t-42 -128.5q-35 -52 -101 -136t-115 -141l-48 -58h-116zM201 440q-7 -64 31 -108t101 -44q64 0 112.5 44t60.5 114q9 56 -27 104t-111 46
q-63 -2 -111.5 -45t-55.5 -111z" />
    <glyph glyph-name="ogonek.case" horiz-adv-x="266" 
d="M118 -161q-39 -12 -67 -12q-40 0 -62 19t-22 48q0 34 29 63t77 43h79q-49 -18 -78.5 -41t-29.5 -48q0 -12 11.5 -19.5t29.5 -7.5q20 0 44 9z" />
    <glyph glyph-name="caron.salt" horiz-adv-x="206" 
d="M145 495h-49q0 1 13.5 37.5t27 71t18.5 45.5q4 10 15 19.5t27 9.5q19 0 27.5 -13.5t-0.5 -35.5z" />
    </font>
</defs>
</svg>
